<?xml version="1.0" standalone="no"?>
<!DOCTYPE svg PUBLIC "-//W3C//DTD SVG 1.1//EN" "http://www.w3.org/Graphics/SVG/1.1/DTD/svg11.dtd" >
<svg xmlns="http://www.w3.org/2000/svg">
<metadata>Generated by IcoMoon</metadata>
<defs>
<font id="icomoon" horiz-adv-x="1024">
<font-face units-per-em="1024" ascent="960" descent="-64" />
<missing-glyph horiz-adv-x="1024" />
<glyph unicode="&#x20;" horiz-adv-x="512" d="" />
<glyph unicode="&#xe900;" glyph-name="allah-word" d="M1015.040 686.488l-1.431 20.894-12.016 98.071-12.036-10.469c-6.769-5.884-13.114-11.364-19.063-16.492-91.088-78.618-91.78-80.616-72.829-213.967l0.763-5.392c16.838-118.921 16.804-241.813 16.77-360.656-0.014-28.284-0.020-57.531 0.2-86.218l0.173-21.711 14.586 16.078c115.994 127.847 96.521 410.801 84.882 579.863zM779.189 509.711c0.173 9.764 0.363 19.582 0.563 29.406 2.099 104.762 4.087 203.715-22.759 253.496l-5.558 10.313-8.061-8.512c-12.195-12.877-22.78-23.204-32.119-32.309-46.366-45.23-56.605-59.135-38.126-144 10.008-45.963 38.119-246.937-18.778-317.566-13.301-16.509-30.007-24.533-51.077-24.536h-0.014c-5.080 0-10.486 0.488-16.061 1.445-48.52 8.333-45.312 141.677-42.49 259.326 2.55 106.132 4.955 206.38-21.718 255.84l-5.558 10.313-8.061-8.512c-12.195-12.877-22.78-23.204-32.119-32.309-46.366-45.23-56.605-59.135-38.126-144 23.448-107.679 17.659-221.187 10.001-308.046-1.926-21.915-28.64-31.723-54.248-31.723-21.844 0-41.517 6.881-51.355 17.964-37.22 41.944-42.009 99.146-47.082 159.709-4.551 54.384-9.258 110.619-39.828 154.795l-5.491 7.943c0 0-34.351-5.87-40.106-39.326-5.762-33.452-4.809-90.156-109.154-154.201-11.836-7.268-24.109-14.752-36.104-22.946-73.338-50.127-69.913-104.108-61.349-131.822 16.309-52.749 75.695-94.073 135.21-94.073 49.805 0 88.911 28.277 110.019 78.499 28.898-66.009 105.715-124.73 169.096-124.73 24.787 0 66.589 9.414 90.162 66.993 16.54-43.023 50.931-67.108 97.501-67.108 80.439 0 173.946 75.98 173.946 173.759 0.743 35.514 0.756 88.938 0.522 127.091-0.315 52.891-0.634 71.442-1.675 78.828zM195.453 299.369c-6.664-4.446-15.38-6.796-25.204-6.796-14.613 0-43.311 5.365-76.207 39.967 35.782 32.031 77.306 54.39 123.638 66.576 5.46-28.175-5.284-88.453-22.227-99.746z" />
<glyph unicode="&#xe901;" glyph-name="multiply" d="M0 960v-1024h1024v1024h-1024zM989.867-29.867h-955.733v955.733h955.733v-955.733zM273.22 185.088l241.357 241.357 241.357-241.357 24.132 24.132-241.357 241.357 241.357 241.357-24.132 24.132-241.357-241.357-241.357 241.357-24.132-24.132 241.357-241.357-241.357-241.357z" />
<glyph unicode="&#xe902;" glyph-name="clock" d="M512 960c-281.6 0-512-230.4-512-512s230.4-512 512-512 512 230.4 512 512-230.4 512-512 512zM512 38.4c-225.28 0-409.6 184.32-409.6 409.6s184.32 409.6 409.6 409.6 409.6-184.32 409.6-409.6-184.32-409.6-409.6-409.6zM537.6 704h-76.8v-307.2l266.24-163.84 40.96 66.56-230.4 138.24z" />
<glyph unicode="&#xe903;" glyph-name="plus" d="M1024 479.67h-480.33v480.33h-63.34v-480.33h-480.33v-63.34h480.33v-480.33h63.34v480.33h480.33z" />
<glyph unicode="&#xe904;" glyph-name="minus" d="M0 479.67h1024v-63.34h-1024v63.34z" />
<glyph unicode="&#xe905;" glyph-name="play-button" d="M117.071-58.166c7.031-3.897 14.801-5.834 22.565-5.834 8.574 0 17.135 2.368 24.669 7.075l744.727 465.451c13.61 8.505 21.876 23.422 21.876 39.471s-8.266 30.965-21.876 39.471l-744.727 465.458c-14.352 8.971-32.436 9.443-47.234 1.241-14.798-8.204-23.98-23.791-23.98-40.712v-930.909c0-16.921 9.182-32.507 23.98-40.712z" />
<glyph unicode="&#xe906;" glyph-name="play-button-1" d="M121.285-64c-42.845 0-62.020 36.717-62.020 73.102v877.796c-0.003 36.385 19.172 73.102 62.014 73.102 13.87 0 28.251-4.246 42.754-12.621l760.199-438.885c25.743-14.868 40.503-36.913 40.503-60.491s-14.76-45.623-40.5-60.488l-760.206-438.901c-14.499-8.368-28.881-12.614-42.744-12.614zM121.279 914.344c-14.235 0-16.361-17.193-16.361-27.446v-877.796c0-10.25 2.126-27.446 16.364-27.446 3.949 0 10.615 1.128 19.919 6.499l760.203 438.898c11.068 6.389 17.675 14.222 17.675 20.95s-6.607 14.561-17.679 20.953l-760.199 438.885c-9.304 5.374-15.97 6.503-19.922 6.503z" />
<glyph unicode="&#xe907;" glyph-name="star-of-favorites-outline" d="M989.533 614.913c-14.345 12.615-32.002 20.748-51.066 23.518l-233.417 33.917-104.386 211.51c-8.527 17.275-21.719 31.558-38.148 41.301-15.243 9.037-32.71 13.816-50.517 13.816s-35.276-4.777-50.517-13.816c-16.43-9.743-29.62-24.025-38.147-41.301l-104.386-211.511-233.415-33.915c-19.066-2.77-36.725-10.903-51.068-23.518-13.306-11.702-23.246-26.839-28.749-43.776-5.502-16.935-6.357-35.024-2.473-52.313 4.189-18.635 13.695-35.596 27.492-49.043l168.901-164.639-39.873-232.471c-4.94-28.807 2.99-58.095 21.758-80.358 18.908-22.428 46.495-35.29 75.688-35.29 15.899 0 31.812 3.947 46.017 11.416l208.773 109.758 208.773-109.758c14.205-7.469 30.116-11.416 46.015-11.416 29.193 0 56.78 12.862 75.69 35.29 18.768 22.263 26.698 51.549 21.758 80.358l-39.871 232.471 168.901 164.639c13.795 13.449 23.302 30.407 27.491 49.043 3.886 17.289 3.031 35.378-2.471 52.313-5.505 16.935-15.447 32.072-28.752 43.776zM942.409 521.952l-186.531-181.827c-6.132-5.978-8.932-14.59-7.483-23.030l44.034-256.741c2.884-16.819-10.479-30.477-25.64-30.477-4.002 0-8.126 0.952-12.112 3.048l-230.567 121.215c-3.791 1.993-7.95 2.99-12.108 2.99s-8.318-0.997-12.108-2.99l-230.567-121.215c-3.985-2.095-8.114-3.048-12.114-3.048-15.163 0-28.525 13.658-25.64 30.477l44.034 256.741c1.449 8.44-1.35 17.052-7.483 23.030l-186.536 181.827c-15.443 15.052-6.922 41.279 14.42 44.381l257.784 37.458c8.474 1.231 15.8 6.554 19.591 14.234l115.285 233.59c4.772 9.67 14.052 14.505 23.333 14.505 9.282 0 18.561-4.837 23.331-14.505l115.285-233.59c3.791-7.678 11.115-13.003 19.591-14.234l257.782-37.458c21.343-3.102 29.863-29.329 14.42-44.381zM766.788-43.826c-16.037 0-32.084 3.981-46.41 11.515l-208.377 109.551-208.377-109.552c-14.328-7.534-30.376-11.515-46.413-11.515-29.445 0-57.268 12.972-76.339 35.592-18.93 22.453-26.928 51.995-21.945 81.050l39.796 232.029-168.581 164.328c-13.914 13.562-23.501 30.667-27.727 49.464-3.918 17.438-3.056 35.682 2.493 52.762 5.551 17.079 15.578 32.348 28.997 44.15 14.467 12.724 32.279 20.926 51.508 23.72l232.973 33.853 104.189 211.11c8.6 17.425 21.904 31.829 38.477 41.657 15.374 9.115 32.99 13.933 50.951 13.933 17.959 0 35.577-4.818 50.951-13.933 16.571-9.826 29.877-24.232 38.477-41.657l104.189-211.11 232.975-33.853c19.227-2.792 37.036-10.995 51.505-23.72 13.421-11.802 23.448-27.070 28.997-44.152 5.551-17.081 6.413-35.325 2.493-52.762-4.224-18.797-13.812-35.9-27.729-49.464l-168.581-164.326 39.796-232.029c4.983-29.055-3.015-58.597-21.947-81.050-19.072-22.618-46.898-35.591-76.341-35.591zM511.999 79.158l0.396-0.207 208.772-109.758c14.083-7.405 29.86-11.318 45.619-11.318 28.941 0 56.292 12.753 75.040 34.987 18.605 22.071 26.467 51.107 21.569 79.666l-39.946 232.914 169.222 164.95c13.676 13.333 23.101 30.145 27.252 48.619 3.854 17.139 3.007 35.074-2.449 51.864s-15.311 31.798-28.502 43.4c-14.221 12.506-31.727 20.569-50.629 23.314l-233.859 33.98-0.197 0.401-104.384 211.513c-8.454 17.129-21.532 31.286-37.818 40.946-15.112 8.961-32.429 13.697-50.083 13.697s-34.973-4.736-50.083-13.697c-16.287-9.658-29.365-23.817-37.818-40.946l-104.585-211.911-233.857-33.982c-18.901-2.747-36.409-10.807-50.629-23.314-13.19-11.602-23.047-26.608-28.502-43.4-5.456-16.79-6.303-34.723-2.451-51.864 4.153-18.476 13.578-35.288 27.256-48.621l169.22-164.95-0.075-0.442-39.873-232.471c-4.898-28.559 2.964-57.595 21.571-79.666 18.746-22.234 46.095-34.987 75.038-34.987 15.761 0 31.536 3.915 45.621 11.318l209.166 109.966zM766.788 29.029c-4.331 0-8.539 1.058-12.506 3.146l-230.567 121.215c-7.192 3.784-16.227 3.784-23.426 0l-230.567-121.215c-3.968-2.088-8.177-3.146-12.508-3.146-7.92 0-15.442 3.534-20.639 9.697-5.131 6.085-7.204 13.818-5.84 21.775l44.034 256.741c1.401 8.165-1.306 16.493-7.24 22.276l-186.534 181.825c-7.377 7.19-9.983 17.744-6.799 27.543s11.494 16.806 21.691 18.287l257.784 37.458c8.199 1.192 15.283 6.34 18.95 13.768l115.285 233.59c4.559 9.239 13.79 14.979 24.094 14.979 10.302 0 19.535-5.74 24.093-14.979l115.285-233.59c3.667-7.43 10.751-12.578 18.952-13.768l257.782-37.458c10.197-1.481 18.51-8.489 21.693-18.288 3.184-9.797 0.578-20.351-6.801-27.542l-186.534-181.827c-5.933-5.782-8.639-14.11-7.238-22.276l44.034-256.741c1.364-7.956-0.711-15.688-5.842-21.773-5.195-6.163-12.717-9.697-20.637-9.697zM511.999 157.982c4.34 0 8.665-1.068 12.505-3.087l230.567-121.215c3.723-1.956 7.665-2.949 11.717-2.949 7.416 0 14.467 3.315 19.338 9.095 4.803 5.695 6.743 12.935 5.464 20.387l-44.034 256.741c-1.495 8.719 1.393 17.608 7.729 23.783l186.533 181.825c6.91 6.736 9.35 16.622 6.369 25.798-2.983 9.178-10.768 15.743-20.321 17.132l-257.782 37.458c-8.751 1.272-16.316 6.767-20.231 14.698l-115.285 233.59c-4.272 8.654-12.92 14.030-22.569 14.030-9.651 0-18.299-5.376-22.569-14.030l-115.285-233.59c-3.915-7.932-11.477-13.428-20.231-14.698l-257.784-37.46c-9.551-1.388-17.336-7.952-20.317-17.13s-0.541-19.064 6.369-25.8l186.533-181.825c6.335-6.175 9.224-15.066 7.728-23.783l-44.034-256.741c-1.277-7.452 0.663-14.693 5.464-20.389 4.872-5.777 11.921-9.093 19.338-9.093 4.054 0 7.996 0.993 11.717 2.949l230.567 121.215c3.843 2.020 8.166 3.088 12.505 3.088z" />
<glyph unicode="&#xe908;" glyph-name="next" d="M743.156 728.843l-45.612-45.614 202.973-202.975h-900.517v-64.509h900.517l-202.973-202.973 45.612-45.614 280.844 280.844z" />
<glyph unicode="&#xe909;" glyph-name="search" d="M1017.75 2.582l-297.465 297.465c56.42 69.654 90.382 158.206 90.382 254.618 0 223.5-181.834 405.335-405.335 405.335s-405.333-181.834-405.333-405.335 181.834-405.335 405.335-405.335c96.412 0 184.964 33.964 254.618 90.382l297.465-297.465c8.334-8.33 21.838-8.33 30.172 0l30.162 30.164c8.33 8.332 8.33 21.84-0.002 30.17zM405.335 234.665c-176.458 0-320.001 143.542-320.001 320.001s143.542 320.001 320.001 320.001 320.001-143.542 320.001-320.001-143.542-320.001-320.001-320.001z" />
<glyph unicode="&#xe90a;" glyph-name="bag" d="M879.266 696.94c-0.936 11.087-10.276 19.582-21.405 19.473h-162.676v61.647c0 100.485-81.463 181.94-181.94 181.94-100.485 0-181.94-81.455-181.94-181.94v-61.647h-162.676c-11.079-0.042-20.326-8.453-21.405-19.473l-56.079-644.716c-2.55-29.891 7.55-59.49 27.86-81.589 20.301-22.090 48.938-34.657 78.946-34.632h630.794c30.008-0.025 58.645 12.542 78.946 34.632 20.309 22.099 30.418 51.697 27.868 81.589zM374.115 778.060c0 76.839 62.291 139.13 139.13 139.13s139.13-62.291 139.13-139.13v-61.647h-278.261zM876.055-0.426c-12.107-13.328-29.306-20.878-47.308-20.761h-631.012c-18.002-0.008-35.176 7.542-47.349 20.803-12.166 13.269-18.211 31.037-16.647 48.972l54.365 625.017h143.202v-133.562c-34.423-10.594-55.92-44.766-50.56-80.385 5.351-35.61 35.953-61.948 71.965-61.948s66.605 26.338 71.965 61.948c5.351 35.619-16.145 69.791-50.56 80.385v133.779h278.261v-133.779c-34.423-10.594-55.92-44.766-50.56-80.385 5.351-35.61 35.953-61.948 71.965-61.948s66.605 26.338 71.965 61.948c5.351 35.619-16.145 69.791-50.56 80.385v133.779h142.985l54.365-625.017c1.756-18.010-4.239-35.911-16.48-49.231zM349.5 500.226c2.132-0.284 4.289-0.284 6.421 0 15.828-1.706 27.567-15.502 26.714-31.396-0.861-15.903-14.005-28.361-29.925-28.361-15.928 0-29.072 12.458-29.925 28.361-0.853 15.895 10.878 29.691 26.714 31.396zM670.57 500.226c2.132-0.284 4.289-0.284 6.421 0 15.828-1.706 27.567-15.502 26.714-31.396-0.861-15.903-14.005-28.361-29.925-28.361-15.928 0-29.072 12.458-29.925 28.361-0.853 15.895 10.878 29.691 26.714 31.396z" />
<glyph unicode="&#xe90b;" glyph-name="quote" d="M237.628 485.74v-82.428h205.932v-443.55h-443.561v443.55h0.011v82.428c0 167.38 48.158 291.667 143.145 369.431 65.708 53.792 148.881 81.066 247.213 81.066v-237.607c-53.379 0-152.74 0-152.74-212.89zM970.814 698.63v237.607c-98.327 0-181.499-27.274-247.208-81.066-94.987-77.764-143.151-202.057-143.151-369.431v-525.977h443.544v443.55h-205.932v82.428c0.005 212.89 99.367 212.89 152.746 212.89z" />
<glyph unicode="&#xe90c;" glyph-name="star" d="M237.824 304.555l-54.059-331.392c-1.963-12.075 3.115-24.235 13.141-31.317 9.984-7.040 23.168-7.808 33.92-1.835l281.173 155.392 281.173-155.435c4.864-2.645 10.197-3.968 15.488-3.968 6.485 0 12.928 1.963 18.432 5.845 10.027 7.083 15.104 19.243 13.141 31.317l-54.059 331.392 228.693 234.411c8.363 8.576 11.264 21.163 7.467 32.512-3.797 11.392-13.653 19.627-25.515 21.461l-314.795 48.085-141.099 300.544c-10.539 22.443-47.36 22.443-57.899 0l-141.056-300.544-314.795-48.085c-11.861-1.835-21.717-10.069-25.515-21.461s-0.939-23.936 7.424-32.512zM368.512 580.352c10.539 1.621 19.584 8.363 24.107 18.005l119.381 254.336 119.381-254.293c4.523-9.643 13.568-16.427 24.107-18.005l270.123-41.259-196.48-201.387c-7.125-7.253-10.325-17.493-8.704-27.52l46.080-282.325-239.019 132.096c-4.821 2.645-10.155 4.011-15.488 4.011s-10.667-1.323-15.488-4.011l-239.019-132.096 46.080 282.325c1.621 10.027-1.579 20.224-8.704 27.52l-196.48 201.387z" />
<glyph unicode="&#xe90d;" glyph-name="favourite" d="M828.339-41.244l-316.339 166.311-316.339-166.311 60.414 352.243-256.075 249.471 353.721 51.378 158.279 325.395 158.279-325.395 353.721-51.378-256.075-249.469z" />
<glyph unicode="&#xe90e;" glyph-name="quote-1" d="M0 384h184.96l-64-320h257.248l69.152 345.6 0.64 422.4h-448v-448zM64 768h320v-348.8l-58.208-291.2h-126.752l64 320h-199.040v320zM576 832v-448h184.96l-64-320h257.248l69.152 345.6 0.64 422.4h-448zM960 419.2l-58.208-291.2h-126.752l64 320h-199.040v320h320v-348.8z" />
<glyph unicode="&#xe90f;" glyph-name="next-1" d="M167.872 527.68c-17.312 2.448-33.696-9.664-36.208-27.168-2.432-17.136-3.664-34.8-3.664-52.512 0-17.696 1.232-35.376 3.664-52.512 2.288-15.968 15.984-27.488 31.648-27.488 1.52 0 3.024 0.112 4.56 0.32 17.504 2.496 29.664 18.704 27.168 36.208-2.032 14.144-3.040 28.784-3.040 43.472 0 14.704 1.008 29.328 3.040 43.488 2.496 17.504-9.664 33.696-27.168 36.192zM512 832c-144.976 0-276.048-80.256-342.096-209.44-8.032-15.728-1.792-35.008 13.936-43.056 15.744-8.048 35.008-1.808 43.056 13.936 55.040 107.664 164.288 174.56 285.104 174.56 176.448 0 320-143.552 320-320s-143.552-320-320-320c-120.816 0-230.064 66.896-285.088 174.56-8.048 15.728-27.312 21.952-43.056 13.936-15.728-8.048-21.968-27.328-13.936-43.056 66.032-129.184 197.104-209.44 342.080-209.44 211.728 0 384 172.272 384 384 0 211.744-172.272 384-384 384zM256 448c0-17.664 14.336-32 32-32h370.752l-73.376-73.376c-12.496-12.496-12.496-32.752 0-45.248 6.256-6.256 14.432-9.376 22.624-9.376s16.368 3.12 22.624 9.376l128 128c12.496 12.496 12.496 32.752 0 45.248l-128 128c-12.496 12.496-32.752 12.496-45.248 0s-12.496-32.752 0-45.248l73.376-73.376h-370.752c-17.664 0-32-14.336-32-32z" />
<glyph unicode="&#xe910;" glyph-name="file" d="M853.817-63.997h-682.75c-9.398 0-16.999 7.593-16.999 16.999v989.921c0 9.398 7.601 16.999 16.999 16.999h528.958c4.601 0 8.804-1.805 11.999-5l153.589-153.589c3.203-3.203 5-7.601 5-11.999v-836.137c0.203-9.601-7.398-17.194-16.796-17.194zM188.268-29.804h648.55v811.935l-143.59 143.59h-504.96zM853.817 772.132h-153.589c-9.398 0-16.999 7.601-16.999 16.999v153.792c0 6.796 4.195 13.194 10.601 15.796 6.398 2.601 13.796 1.203 18.592-3.797l153.589-153.589c4.804-4.804 6.398-12.202 3.804-18.6-3-6.398-9.202-10.601-15.999-10.601zM717.226 806.333h95.391l-95.391 95.391zM853.817-63.997h-682.75c-9.398 0-16.999 7.593-16.999 16.999v307.171c0 9.398 7.601 16.999 16.999 16.999h682.547c9.398 0 16.999-7.601 16.999-16.999v-307.171c0.203-9.406-7.398-16.999-16.796-16.999zM188.268-29.804h648.55v272.978h-648.55zM273.457 4.193c-9.398 0-16.999 7.601-16.999 16.999v170.791c0 9.398 7.601 16.999 16.999 16.999 9.406 0 16.999-7.601 16.999-16.999v-170.588c0.203-9.398-7.593-17.202-16.999-17.202zM751.418 174.984h-102.39c-9.398 0-16.999 7.593-16.999 16.999 0 9.398 7.601 16.999 16.999 16.999h102.39c9.406 0 16.999-7.601 16.999-16.999 0-9.406-7.593-16.999-16.999-16.999zM751.418 89.585h-102.39c-9.398 0-16.999 7.601-16.999 16.999 0 9.406 7.601 16.999 16.999 16.999h102.39c9.406 0 16.999-7.593 16.999-16.999 0-9.398-7.593-16.999-16.999-16.999zM649.028 4.193c-9.398 0-16.999 7.601-16.999 16.999v170.791c0 9.398 7.601 16.999 16.999 16.999s16.999-7.601 16.999-16.999v-170.588c0-9.398-7.601-17.202-16.999-17.202zM714.226 517.754c-6.601 12.601-22.803 18.795-49.395 18.795-15.6 0-34.802-2-57.199-6-31.201 32.599-63.596 80.197-86.595 126.99 3.601 14.999 6.999 30.201 9.601 45.403 3 17.795 6.601 38.192 2.797 56.191-1.594 7.203-5.796 13.6-10.593 18.998-4.203 4.601-9.999 10.999-16.803 10.999-3.601 0-13.397-1.601-17.194-2.797-9.804-3.203-14.999-10.804-19.202-20.397-11.999-27.802 4.398-74.994 21.397-111.593-14.6-56.995-38.794-125.193-64.393-180.587-64.393-29.201-98.594-57.792-101.789-85.196-1.203-9.999 1.195-24.592 18.998-37.591 4.796-3.601 10.593-5.406 16.397-5.406 14.796 0 29.998 11.202 47.395 35.403 12.601 17.592 26.396 41.59 40.598 71.393 45.598 19.6 101.789 37.395 150.183 47.395 26.803-25.396 50.996-38.395 71.596-38.395 15.202 0 28.201 6.999 37.802 19.998 9.796 13.6 11.999 25.795 6.398 36.396zM360.653 373.969c-7.999 6-7.398 9.999-7.398 11.593 1 9.406 15.796 25.998 52.191 45.996-27.396-50.191-42.192-56.792-44.793-57.589zM500.243 758.938c0.797 0.195 17.795-18.405 1.601-53.996-24.201 24.396-3.406 53.394-1.601 53.996zM465.043 489.756c17.202 40.598 33.396 85.392 45.395 126.99 18.998-33.794 41.997-66.792 64.995-93.196-36.192-8.195-74.791-20.194-110.39-33.794zM684.424 497.756c-5.195-7.203-16.592-7.398-20.592-7.398-8.999 0-12.405 5.398-26.404 15.796 11.405 1.398 22.201 1.805 30.802 1.805 15.194 0 17.999-2.203 19.998-3.406-0.203-1-1.203-3.195-3.804-6.796zM324.656 72.586h-51.199c-9.398 0-16.999 7.601-16.999 16.999v102.398c0 9.398 7.601 16.999 16.999 16.999h51.199c37.599 0 68.198-30.599 68.198-68.198 0.195-37.599-30.404-68.198-68.198-68.198zM290.658 106.584h34.2c18.795 0 34.193 15.405 34.193 34.2s-15.397 34.2-34.193 34.2h-34.2zM478.245 4.193h-16.999c-9.398 0-16.999 7.601-16.999 16.999v170.791c0 9.398 7.601 16.999 16.999 16.999h16.999c56.394 0 102.39-45.996 102.39-102.398 0-56.394-45.793-102.39-102.39-102.39zM478.245 174.984v-136.591c37.599 0 68.19 30.599 68.19 68.19 0 37.599-30.396 68.401-68.19 68.401z" />
<glyph unicode="&#xe911;" glyph-name="doc" d="M854.078 735.237l-219.365 219.368c-3.457 3.454-8.141 5.396-13.028 5.396h-329.050c-70.641 0-128.109-57.468-128.109-128.109v-767.782c0-70.641 57.468-128.109 128.109-128.109h219.368c10.174 0 18.427 8.253 18.427 18.427s-8.25 18.427-18.427 18.427h-219.368c-50.321 0-91.258 40.938-91.258 91.258v767.779c0 50.321 40.938 91.258 91.258 91.258h321.418l208.57-208.573v-431.103c0-10.174 8.25-18.427 18.427-18.427 10.174 0 18.427 8.25 18.427 18.427v438.735c-0.003 4.887-1.942 9.574-5.399 13.028zM841.050 740.632h-109.682c-50.318 0-91.255 40.938-91.255 91.258v109.682c0 10.177-8.25 18.427-18.427 18.427-10.174 0-18.427-8.25-18.427-18.427v-109.682c0-70.638 57.468-128.109 128.106-128.109h109.682c10.174 0 18.427 8.25 18.427 18.427s-8.25 18.424-18.424 18.424zM736.851 413.776h-444.216c-10.177 0-18.427-8.25-18.427-18.427s8.25-18.427 18.427-18.427h444.216c10.177 0 18.427 8.25 18.427 18.427s-8.253 18.427-18.427 18.427zM736.851 521.268h-444.216c-10.177 0-18.427-8.25-18.427-18.427s8.25-18.427 18.427-18.427h444.216c10.177 0 18.427 8.25 18.427 18.427s-8.253 18.427-18.427 18.427zM736.851 630.95h-444.216c-10.177 0-18.427-8.25-18.427-18.427s8.25-18.427 18.427-18.427h444.216c10.177 0 18.427 8.25 18.427 18.427s-8.253 18.427-18.427 18.427zM512 850.318h-219.365c-10.177 0-18.427-8.25-18.427-18.427s8.25-18.427 18.427-18.427h219.368c10.174 0 18.427 8.25 18.427 18.427-0.003 10.177-8.256 18.427-18.43 18.427zM381.479 227.539c-6.581 5.481-13.164 9.868-21.938 12.064-7.677 2.194-16.451 3.29-27.422 3.29h-38.39c-7.677 0-14.258-2.19-17.548-6.578-4.387-4.387-5.484-9.871-5.484-18.648v-115.166c0-5.484 0-9.871 1.097-14.258s3.29-7.68 7.677-10.968c3.29-2.19 8.777-3.29 15.355-3.29h38.39c6.581 0 13.164 0 18.645 1.094 5.484 1.097 10.968 3.293 16.454 5.484 5.484 2.194 9.871 5.484 14.258 9.871 5.484 5.484 9.871 10.968 13.164 18.648 3.29 6.578 5.484 14.258 7.677 23.032 1.097 7.68 2.194 17.551 2.194 27.422 0 29.613-8.774 52.645-24.129 68.002zM351.861 116.757c-2.194-1.097-3.29-3.29-5.484-3.29-2.194-1.097-5.484-1.097-7.677-2.194-2.194 0-6.581 0-10.968 0h-17.548v95.424h14.258c8.777 0 15.355-1.094 21.938-3.29 5.484-2.19 9.871-5.484 13.161-12.064 3.293-6.584 5.484-17.551 5.484-31.809 0-19.742-4.387-35.096-13.164-42.777zM579.999 204.504c-5.484 12.067-14.255 23.032-26.319 29.613-12.067 6.581-26.325 10.968-41.68 10.968-12.064 0-23.035-2.194-31.809-6.581-9.871-4.387-17.548-9.871-24.132-17.548-6.581-7.68-12.064-16.454-15.355-27.422s-5.484-21.938-5.484-35.099c0-12.067 2.194-24.129 4.387-34 3.29-10.968 8.774-19.742 14.258-27.422 6.581-7.677 15.355-14.258 25.226-18.645s20.842-6.581 32.903-6.581 23.035 2.194 32.903 6.581c9.871 4.387 17.548 9.871 24.129 18.645 6.581 7.68 12.067 17.551 15.355 27.422 3.29 9.871 4.39 21.935 4.39 35.099 0.006 17.548-3.284 32.903-8.771 44.97zM542.712 129.921c-3.29-7.68-7.677-13.164-13.164-16.454-9.871-6.581-21.935-6.581-31.809-2.194-4.387 2.194-7.677 5.484-10.968 8.777-3.29 4.387-5.484 9.871-7.677 16.451s-3.29 14.261-3.29 23.035 1.097 15.355 3.29 21.938c2.194 6.578 4.387 12.064 7.677 15.352 3.293 4.39 6.584 6.581 10.971 8.777 4.387 2.19 8.774 3.29 14.258 3.29 7.677 0 13.164-2.19 18.648-5.484 5.484-3.29 9.871-8.774 13.161-16.454 3.29-7.677 4.39-17.548 4.39-27.419-0.003-12.070-2.194-21.941-5.487-29.616zM755.496 143.082c-3.29 3.29-7.677 5.484-13.164 5.484-7.677 0-10.968-3.29-13.164-6.581-2.194-3.29-4.387-6.578-5.484-12.064-2.194-7.68-6.581-13.164-10.968-17.551-5.484-3.29-10.968-5.484-18.648-5.484-6.581 0-12.064 2.194-17.548 5.484-4.387 3.29-8.774 8.774-12.064 15.355-3.29 7.68-4.387 17.551-4.387 28.516 0 17.551 3.29 30.712 9.871 39.489 6.581 8.774 14.258 13.161 25.226 13.161 6.581 0 12.064-1.097 16.451-4.387 4.39-3.29 8.777-8.774 12.067-15.355 2.194-5.484 5.484-8.774 7.677-10.968 3.29-3.29 7.677-4.387 12.067-4.387 5.484 0 9.871 2.194 13.161 6.581 3.29 3.29 5.484 8.774 5.484 13.161 0 7.68-3.29 15.355-8.774 24.129-5.484 7.68-13.164 15.355-23.035 20.842-9.871 5.484-21.935 8.774-34.003 8.774-10.968 0-20.842-2.19-29.613-5.481-8.777-4.39-17.548-9.874-24.129-17.551s-12.067-16.454-15.355-27.422c-3.29-10.965-5.484-23.032-5.484-36.193 0-7.68 1.097-15.355 2.194-23.035 1.097-7.677 3.29-14.258 6.581-20.842 3.29-6.578 6.581-12.064 10.968-17.548s9.871-10.968 15.355-14.261c5.484-3.29 12.064-6.578 18.645-7.677 6.581-2.194 14.258-2.194 21.938-2.194 10.968 0 20.842 2.194 29.613 5.484 8.777 3.293 15.355 8.777 20.842 15.355 5.484 6.581 8.774 12.067 12.064 18.648 2.194 6.578 3.29 12.064 3.29 18.645-2.187 1.1-4.384 6.584-7.674 9.874z" />
<glyph unicode="&#xe912;" glyph-name="link" d="M424.522 179.515l-120.663-120.663c-50.024-50.024-131.035-50.024-181.017-0.010-49.992 49.992-49.992 131.011-0.010 180.993l241.367 241.367c49.982 49.984 131.001 49.984 180.983 0 16.662-16.662 43.678-16.662 60.34 0s16.662 43.678 0 60.34c-83.308 83.308-218.355 83.308-301.664 0l-241.365-241.365c-83.308-83.308-83.308-218.355 0-301.664 83.298-83.352 218.355-83.352 301.708 0l120.663 120.663c16.662 16.662 16.662 43.678 0 60.34s-43.68 16.66-60.342-0.002zM961.508 897.52c-83.308 83.308-218.399 83.308-301.708 0l-144.769-144.769c-16.662-16.662-16.662-43.678 0-60.34s43.678-16.662 60.34 0l144.769 144.769c49.982 49.984 131.043 49.984 181.027 0 49.982-49.982 49.982-131.001 0-180.983l-265.474-265.476c-49.984-49.984-131.001-49.984-180.983 0-16.662 16.662-43.678 16.662-60.34 0s-16.662-43.678 0-60.34c83.308-83.308 218.355-83.308 301.664 0l265.474 265.474c83.308 83.308 83.308 218.357 0 301.666z" />
<glyph unicode="&#xe913;" glyph-name="call" d="M997.13 170.039l-207.261 138.219c-26.302 17.399-61.559 11.674-81.004-13.156l-60.373-77.624c-7.759-10.23-21.863-13.198-33.087-6.963l-11.484 6.331c-38.070 20.751-85.439 46.585-180.879 142.059s-121.326 142.879-142.077 180.879l-6.297 11.484c-6.321 11.222-3.409 25.386 6.825 33.207l77.572 60.355c24.82 19.447 30.553 54.694 13.174 81.004l-138.219 207.261c-17.811 26.792-53.546 34.835-81.12 18.259l-86.669-52.062c-27.232-16.010-47.211-41.938-55.748-72.351-31.209-113.715-7.731-309.97 281.37-599.105 229.974-229.956 401.178-291.797 518.853-291.797 27.082-0.116 54.058 3.407 80.202 10.476 30.419 8.527 56.352 28.508 72.351 55.748l52.114 86.617c16.6 27.58 8.561 63.337-18.243 81.158zM985.97 106.391l-51.994-86.669c-11.488-19.661-30.14-34.117-52.046-40.34-104.978-28.822-288.383-4.949-565.932 272.6s-301.419 460.938-272.598 565.932c6.231 21.933 20.705 40.608 40.39 52.114l86.669 51.994c11.964 7.199 27.474 3.709 35.203-7.917l138.102-207.243c7.547-11.412 5.067-26.708-5.699-35.153l-77.59-60.355c-23.612-18.055-30.355-50.724-15.818-76.653l6.161-11.194c21.809-39.998 48.923-89.757 147.912-188.73 98.989-98.971 148.732-126.087 188.712-147.894l11.21-6.177c25.926-14.536 58.597-7.795 76.653 15.818l60.355 77.59c8.447 10.76 23.736 13.238 35.153 5.699l207.243-138.219c11.634-7.723 15.124-23.241 7.915-35.203zM580.236 789.245c160.138-0.178 289.911-129.953 290.091-290.091 0-9.425 7.639-17.063 17.063-17.063s17.063 7.639 17.063 17.063c-0.198 178.979-145.238 324.022-324.218 324.218-9.425 0-17.063-7.639-17.063-17.063s7.639-17.063 17.063-17.063zM580.236 686.861c103.617-0.122 187.584-84.090 187.706-187.706 0-9.425 7.641-17.063 17.063-17.063 9.425 0 17.063 7.639 17.063 17.063-0.142 122.458-99.377 221.693-221.833 221.833-9.425 0-17.063-7.639-17.063-17.063s7.639-17.063 17.063-17.063zM580.236 584.476c47.097-0.056 85.263-38.222 85.321-85.321 0-9.425 7.641-17.063 17.063-17.063s17.063 7.639 17.063 17.063c-0.076 65.938-53.51 119.374-119.448 119.448-9.425 0-17.063-7.639-17.063-17.063s7.639-17.063 17.063-17.063z" />
<glyph unicode="&#xe914;" glyph-name="pin" d="M512 829.38c-116.913 0-212.057-95.143-212.057-212.057s95.143-212.057 212.057-212.057 212.057 95.143 212.057 212.057-95.143 212.057-212.057 212.057zM512 437.921c-98.973 0-179.402 80.428-179.402 179.402s80.428 179.402 179.402 179.402c98.973 0 179.402-80.428 179.402-179.402s-80.428-179.402-179.402-179.402zM512 960c-188.876 0-342.677-153.802-342.677-342.677 0-183.231 315.868-642.419 329.172-661.972l13.506-19.351 13.506 19.351c13.304 19.553 329.172 478.74 329.172 661.972 0 188.876-153.802 342.677-342.677 342.677zM512-6.148c-61.077 90.91-310.022 470.879-310.022 623.471 0 170.935 139.087 310.022 310.022 310.022s310.022-139.087 310.022-310.022c0-152.592-248.945-532.561-310.022-623.471z" />
<glyph unicode="&#xe915;" glyph-name="calendar" d="M256 499.2h102.4v-102.4h-102.4v102.4zM460.8 499.2h102.4v-102.4h-102.4v102.4zM665.6 499.2h102.4v-102.4h-102.4v102.4zM256 294.4h102.4v-102.4h-102.4v102.4zM460.8 294.4h102.4v-102.4h-102.4v102.4zM665.6 294.4h102.4v-102.4h-102.4v102.4zM972.8 857.6h-102.4v51.2c0 30.72-20.48 51.2-51.2 51.2s-51.2-20.48-51.2-51.2v-51.2h-512v51.2c0 30.72-20.48 51.2-51.2 51.2s-51.2-20.48-51.2-51.2v-51.2h-102.4c-30.72 0-51.2-20.48-51.2-51.2v-819.2c0-30.72 20.48-51.2 51.2-51.2h921.6c25.6 0 51.2 20.48 51.2 51.2v819.2c0 30.72-25.6 51.2-51.2 51.2zM921.6 38.4h-819.2v614.4h819.2v-614.4z" />
<glyph unicode="&#xe916;" glyph-name="verified" d="M874.038 810.040c-96.704 96.702-225.278 149.96-362.038 149.96-136.762 0-265.336-53.258-362.040-149.96-96.702-96.704-149.96-225.28-149.96-362.040s53.258-265.334 149.96-362.038c96.704-96.704 225.28-149.962 362.040-149.962s265.334 53.258 362.038 149.96c96.704 96.706 149.962 225.28 149.962 362.040s-53.258 265.334-149.962 362.040zM756.612 569.854l-286.13-286.132c-5.858-5.858-13.536-8.786-21.212-8.786-7.678 0-15.356 2.928-21.214 8.786l-160.668 160.666c-11.716 11.714-11.716 30.708 0 42.426 11.714 11.716 30.71 11.716 42.426 0l139.456-139.454 264.916 264.92c11.714 11.716 30.71 11.716 42.426 0s11.716-30.71 0-42.426z" />
<glyph unicode="&#xe917;" glyph-name="user" d="M504.702 466.735c67.765 0 126.437 24.305 174.39 72.258 47.937 47.945 72.25 106.609 72.25 174.382 0 67.75-24.305 126.422-72.258 174.382-47.953 47.937-106.625 72.242-174.382 72.242-67.773 0-126.437-24.305-174.382-72.25s-72.258-106.617-72.258-174.375c0-67.773 24.312-126.445 72.258-174.39 47.961-47.937 106.633-72.25 174.382-72.25zM372.757 845.321c36.789 36.789 79.945 54.672 131.945 54.672 51.992 0 95.156-17.883 131.953-54.672 36.789-36.797 54.68-79.961 54.68-131.945 0-52-17.891-95.156-54.68-131.953-36.797-36.797-79.961-54.68-131.953-54.68-51.984 0-95.14 17.891-131.945 54.68-36.797 36.789-54.687 79.953-54.687 131.953 0 51.984 17.891 95.148 54.687 131.945zM936.256 172.595c-1.383 19.953-4.18 41.719-8.297 64.703-4.156 23.156-9.508 45.047-15.914 65.055-6.625 20.68-15.617 41.101-26.75 60.672-11.539 20.312-25.102 38-40.32 52.555-15.914 15.227-35.398 27.469-57.93 36.398-22.453 8.883-47.336 13.383-73.953 13.383-10.453 0-20.562-4.289-40.086-17-12.016-7.836-26.070-16.898-41.758-26.922-13.414-8.547-31.586-16.555-54.031-23.805-21.898-7.086-44.133-10.68-66.086-10.68-21.937 0-44.172 3.594-66.086 10.68-22.422 7.242-40.601 15.25-53.992 23.797-15.539 9.93-29.602 18.992-41.797 26.937-19.508 12.711-29.617 17-40.070 17-26.625 0-51.5-4.508-73.945-13.398-22.516-8.914-42.008-21.156-57.937-36.398-15.219-14.562-28.781-32.242-40.312-52.547-11.117-19.57-20.117-39.984-26.742-60.68-6.398-20.008-11.75-41.891-15.906-65.047-4.125-22.953-6.914-44.726-8.297-64.726-1.359-19.555-2.047-39.906-2.047-60.469 0-53.453 16.992-96.726 50.5-128.64 33.094-31.492 76.875-47.461 130.133-47.461h493.062c53.242 0 97.023 15.969 130.125 47.461 33.516 31.891 50.508 75.18 50.508 128.648-0.008 20.633-0.703 40.984-2.070 60.484zM846.444 26.939c-21.867-20.812-50.898-30.93-88.758-30.93h-493.054c-37.867 0-66.898 10.117-88.758 30.922-21.445 20.414-31.867 48.281-31.867 85.172 0 19.187 0.633 38.133 1.898 56.32 1.234 17.844 3.758 37.445 7.5 58.273 3.695 20.57 8.398 39.875 13.992 57.351 5.367 16.758 12.687 33.351 21.766 49.336 8.664 15.234 18.633 28.305 29.633 38.836 10.289 9.852 23.258 17.914 38.539 23.961 14.133 5.594 30.016 8.656 47.258 9.117 2.102-1.117 5.844-3.25 11.906-7.203 12.336-8.039 26.555-17.211 42.273-27.25 17.719-11.297 40.547-21.5 67.82-30.305 27.883-9.016 56.32-13.594 84.547-13.594s56.672 4.578 84.539 13.586c27.297 8.82 50.117 19.016 67.859 30.328 16.086 10.281 29.906 19.187 42.242 27.234 6.062 3.945 9.805 6.086 11.906 7.203 17.25-0.461 33.133-3.523 47.273-9.117 15.273-6.047 28.242-14.117 38.531-23.961 11-10.523 20.969-23.594 29.633-38.844 9.086-15.977 16.414-32.578 21.773-49.32 5.602-17.5 10.312-36.797 14-57.351 3.734-20.867 6.266-40.476 7.5-58.289v-0.016c1.273-18.117 1.914-37.055 1.922-56.297-0.008-36.898-10.43-64.758-31.875-85.164z" />
<glyph unicode="&#xe918;" glyph-name="maps-and-flags" d="M512 960c-204.49 0-370.854-166.364-370.854-370.852 0-253.776 331.878-626.334 346.008-642.070 13.272-14.782 36.444-14.756 49.692 0 14.13 15.736 346.008 388.294 346.008 642.070-0.004 204.488-166.366 370.852-370.854 370.852zM512 402.562c-102.884 0-186.584 83.702-186.584 186.586s83.702 186.584 186.584 186.584 186.582-83.702 186.582-186.586-83.7-186.584-186.582-186.584z" />
<glyph unicode="&#xe919;" glyph-name="mail" d="M1009.93 837.5l-419.906-419.906c-21.516-21.516-49.766-32.266-78.023-32.266s-56.508 10.75-78.016 32.266l-419.914 419.906c-8.938-15.938-14.070-34.289-14.070-53.828v-674.805c0-60.836 49.492-110.336 110.336-110.336h803.336c60.836 0 110.328 49.5 110.328 110.336v674.805c0 19.539-5.133 37.891-14.070 53.828zM547.594 460.016l419.906 419.914c-15.938 8.945-34.297 14.070-53.828 14.070h-803.336c-19.539 0-37.898-5.125-53.836-14.070l419.906-419.914c19.633-19.625 51.563-19.625 71.188 0z" />
<glyph unicode="&#xe91a;" glyph-name="tick" d="M1012.464 808.984c-15.378 15.38-40.316 15.38-55.698 0l-638.421-638.423-251.11 251.112c-15.378 15.382-40.316 15.382-55.698 0-15.38-15.38-15.38-40.316 0-55.698l278.963-278.963c15.374-15.374 40.32-15.378 55.698 0l666.267 666.273c15.38 15.382 15.38 40.318 0 55.698z" />
<glyph unicode="&#xe91b;" glyph-name="check" d="M511.999 960c-282.769 0-511.999-229.23-511.999-511.999s229.23-511.999 511.999-511.999 511.999 229.23 511.999 511.999c-0.3 282.643-229.354 511.697-511.999 511.999zM511.999 9.144c-242.374 0-438.857 196.483-438.857 438.857s196.483 438.857 438.857 438.857 438.857-196.483 438.857-438.857c-0.261-242.267-196.59-438.595-438.857-438.857zM792.955 656.713c-14.173 13.689-36.641 13.689-50.811 0v0l-339.859-339.857-120.431 120.431c-14.031 14.529-37.185 14.929-51.711 0.898-14.529-14.031-14.929-37.185-0.898-51.711 0.294-0.304 0.594-0.604 0.898-0.898l146.286-146.286c14.28-14.278 37.431-14.278 51.711 0l365.715 365.715c14.031 14.526 13.629 37.678-0.9 51.709z" />
<glyph unicode="&#xe91c;" glyph-name="quote-2" d="M268.8 38.397h-127.997c-77.672 0-140.803 63.131-140.803 140.803v127.997c0 77.672 63.131 140.803 140.803 140.803h127.997c77.672 0 140.803-63.131 140.803-140.803v-127.997c0-77.672-63.131-140.803-140.803-140.803zM140.803 371.2c-35.278 0-64.003-28.725-64.003-64.003v-127.997c0-35.278 28.725-64.003 64.003-64.003h127.997c35.278 0 64.003 28.725 64.003 64.003v127.997c0 35.278-28.725 64.003-64.003 64.003zM38.4 268.797c-21.197 0-38.4 17.203-38.4 38.4v256.003c0 162.3 132.047 294.403 294.403 294.403h76.8c21.197 0 38.4-17.203 38.4-38.4s-17.203-38.4-38.4-38.4h-76.8c-120.019 0-217.603-97.641-217.603-217.603v-256.003c0-21.197-17.203-38.4-38.4-38.4zM883.2 38.397h-127.997c-77.672 0-140.803 63.131-140.803 140.803v127.997c0 77.672 63.131 140.803 140.803 140.803h127.997c77.672 0 140.803-63.131 140.803-140.803v-127.997c0-77.672-63.131-140.803-140.803-140.803zM755.203 371.2c-35.278 0-64.003-28.725-64.003-64.003v-127.997c0-35.278 28.725-64.003 64.003-64.003h127.997c35.278 0 64.003 28.725 64.003 64.003v127.997c0 35.278-28.725 64.003-64.003 64.003zM652.8 268.797c-21.197 0-38.4 17.203-38.4 38.4v256.003c0 162.3 132.047 294.403 294.403 294.403h76.8c21.197 0 38.4-17.203 38.4-38.4s-17.203-38.4-38.4-38.4h-76.8c-120.019 0-217.603-97.641-217.603-217.603v-256.003c0-21.197-17.203-38.4-38.4-38.4z" />
<glyph unicode="&#xe91d;" glyph-name="confirmation" d="M734.165 584.832c-16.64 16.661-43.691 16.661-60.331 0l-183.168-183.147-76.501 76.48c-16.64 16.661-43.691 16.661-60.331 0-16.661-16.661-16.661-43.669 0-60.331l106.667-106.667c8.32-8.341 19.243-12.501 30.165-12.501s21.845 4.16 30.165 12.501l213.333 213.333c16.661 16.661 16.661 43.669 0 60.331zM981.333 490.667c-23.552 0-42.667-19.115-42.667-42.667 0-235.264-191.403-426.667-426.667-426.667s-426.667 191.403-426.667 426.667 191.403 426.667 426.667 426.667c114.539 0 222.059-44.757 302.784-126.037 16.576-16.747 43.605-16.832 60.331-0.213 16.725 16.597 16.811 43.605 0.213 60.331-96.853 97.536-225.899 151.253-363.328 151.253-282.325 0-512-229.675-512-512s229.675-512 512-512 512 229.675 512 512c0 23.552-19.115 42.667-42.667 42.667z" />
<glyph unicode="&#xe91e;" glyph-name="telephone" d="M778.514 282.604c-33.454 33.028-75.219 33.028-108.46 0-25.357-25.144-50.714-50.288-75.645-75.858-6.819-7.032-12.572-8.523-20.882-3.836-16.408 8.95-33.88 16.194-49.649 25.996-73.514 46.239-135.096 105.69-189.645 172.599-27.062 33.241-51.14 68.826-67.974 108.886-3.409 8.097-2.77 13.424 3.836 20.030 25.357 24.505 50.075 49.649 75.006 74.793 34.733 34.946 34.733 75.858-0.213 111.017-19.817 20.030-39.634 39.634-59.451 59.664-20.456 20.456-40.699 41.125-61.368 61.368-33.454 32.602-75.219 32.602-108.46-0.213-25.57-25.144-50.075-50.927-76.071-75.645-24.079-22.8-36.224-50.714-38.781-83.316-4.049-53.058 8.95-103.133 27.275-151.929 37.503-101.002 94.61-190.711 163.862-272.962 93.544-111.23 205.201-199.234 335.822-262.733 58.811-28.553 119.754-50.501 186.023-54.124 45.6-2.557 85.234 8.95 116.984 44.535 21.735 24.292 46.239 46.452 69.253 69.679 34.094 34.52 34.307 76.284 0.426 110.378-40.486 40.699-81.185 81.185-121.884 121.671zM737.814 452.432l78.628 13.424c-12.359 72.236-46.452 137.653-98.232 189.645-54.763 54.763-124.015 89.283-200.3 99.937l-11.080-79.054c59.024-8.31 112.722-34.946 155.126-77.35 40.060-40.060 66.269-90.774 75.858-146.602zM860.764 794.22c-90.774 90.774-205.627 148.094-332.412 165.78l-11.080-79.054c109.526-15.342 208.823-64.991 287.238-143.193 74.367-74.367 123.163-168.337 140.849-271.683l78.628 13.424c-20.669 119.754-77.137 228.427-163.223 314.726z" />
<glyph unicode="&#xe91f;" glyph-name="email" d="M934 838h-844c-13.854 0-26.824-3.406-38.558-9.020l458.558-458.558 102.778 98.774c0 0 0.008 0.010 0.010 0.014s0.010 0.008 0.010 0.008l359.774 359.754c-11.736 5.618-24.714 9.028-38.572 9.028zM1014.992 786.544l-338.566-338.548 338.554-338.554c5.614 11.734 9.020 24.704 9.020 38.558v600c0 13.846-3.398 26.814-9.008 38.544zM9.020 786.558c-5.614-11.734-9.020-24.704-9.020-38.558v-600c0-13.846 3.402-26.818 9.012-38.548l338.566 338.548-338.558 338.558zM634.004 405.574l-102.792-98.786c-5.86-5.86-13.536-8.79-21.21-8.79s-15.352 2.93-21.21 8.79l-98.792 98.79-338.572-338.55c11.736-5.618 24.714-9.028 38.572-9.028h844c13.854 0 26.824 3.406 38.558 9.020l-338.554 338.554z" />
<glyph unicode="&#xe920;" glyph-name="pin-1" d="M512 960c-211.75 0-384-172.27-384-384 0-283.292 354.292-620 369.376-634.208 4.124-3.854 9.374-5.792 14.624-5.792s10.5 1.938 14.626 5.792c15.082 14.208 369.374 350.916 369.374 634.208 0 211.73-172.25 384-384 384zM512 362.666c-117.626 0-213.334 95.708-213.334 213.334s95.71 213.334 213.334 213.334 213.334-95.71 213.334-213.334-95.708-213.334-213.334-213.334z" />
<glyph unicode="&#xe921;" glyph-name="placeholder" d="M512 960c-198.504 0-360-161.496-360-360 0-67.068 18.578-132.52 53.738-189.304l285.77-460.514c5.474-8.822 15.118-14.182 25.49-14.182 0.080 0 0.158 0 0.238 0 10.462 0.082 20.126 5.608 25.5 14.584l278.486 464.976c33.22 55.584 50.778 119.362 50.778 184.44 0 198.504-161.496 360-360 360zM769.732 446.364l-253.188-422.736-259.81 418.68c-29.266 47.264-45.134 101.792-45.134 157.692 0 165.42 134.98 300.4 300.4 300.4s300.2-134.98 300.2-300.4c0-54.242-14.822-107.376-42.468-153.636zM512 780c-99.252 0-180-80.748-180-180 0-98.618 79.434-180 180-180 101.806 0 180 82.466 180 180 0 99.252-80.748 180-180 180zM512 479.6c-66.514 0-120.4 54.066-120.4 120.4 0 66.168 54.232 120.4 120.4 120.4s120.2-54.232 120.2-120.4c0-65.366-52.632-120.4-120.2-120.4z" />
<glyph unicode="&#xe922;" glyph-name="down-arrow" d="M0 704.001l512.002-512.002 511.998 512.002z" />
<glyph unicode="&#xe923;" glyph-name="quote-3" d="M0 374.857h219.428l-146.287-292.57h219.428l146.287 292.57v438.857h-438.857zM585.143 813.713v-438.857h219.428l-146.287-292.57h219.428l146.287 292.57v438.857z" />
<glyph unicode="&#xe924;" glyph-name="open-archive" d="M1012.594 584.087c-12.237 17.246-32.853 27.139-56.566 27.139h-90.254v98.152c0 37.826-30.773 68.599-68.599 68.599h-316.377c-13.46 0-34.466 10.664-42.405 21.529l-23.68 32.39c-18.473 25.267-56.006 44.326-87.309 44.326h-109.628c-34.459 0-69.114-24.503-80.605-57l-7.538-21.329c-3.552-10.049-17.506-19.916-28.166-19.916h-32.868c-37.826 0-68.599-30.773-68.599-68.599v-619.502c0-3.282 0.597-6.415 1.643-9.341 0.564-12.259 4.375-23.82 11.321-33.61 12.237-17.25 32.853-27.139 56.566-27.139h698.913c42.253 0 86.286 31.236 100.247 71.116l150.832 430.829c7.831 22.378 5.31 45.105-6.927 62.354zM68.599 722.356h32.868c34.466 0 69.118 24.503 80.605 57l7.535 21.321c3.556 10.052 17.509 19.92 28.17 19.92h109.624c13.46 0 34.466-10.664 42.409-21.529l23.68-32.386c18.473-25.27 56.006-44.326 87.309-44.326h316.377c7.038 0 12.978-5.944 12.978-12.978v-98.152h-553.039c-42.253 0-86.286-31.236-100.247-71.116l-101.248-289.201v458.469c0 7.034 5.944 12.978 12.978 12.978zM967.022 540.109l-150.832-430.829c-6.207-17.728-28.967-33.873-47.748-33.873h-698.913c-5.369 0-9.556 1.383-11.198 3.701s-1.568 6.726 0.208 11.795l150.832 430.829c6.207 17.728 28.967 33.873 47.748 33.873h698.913c5.369 0 9.556-1.383 11.202-3.701 1.639-2.318 1.565-6.726-0.211-11.795z" />
<glyph unicode="&#xe925;" glyph-name="send" d="M1013.958 951.266c-9.125 8.593-22.375 11.062-33.843 6.438l-959.986-383.995c-10.593-4.249-18.094-13.751-19.78-25.030-1.657-11.25 2.781-22.561 11.656-29.656l307.996-246.511v-176.512c0-11.812 6.5-22.655 16.905-28.219 4.72-2.531 9.905-3.781 15.093-3.781 6.218 0 12.406 1.813 17.75 5.376l93.33 62.223 186.289-186.221c6.062-6.062 14.251-9.375 22.625-9.375 2.437 0 4.906 0.282 7.344 0.844 10.811 2.563 19.5 10.531 22.999 21.031l319.996 959.982c3.969 11.814 0.688 24.844-8.375 33.407zM859.128 840.373l-509.566-509.566-254.715 203.872zM383.999 155.775v54.863l32.922-32.907zM657.994 27.216l-260.805 260.719 521.566 521.566z" />
<glyph unicode="&#xe926;" glyph-name="phone" d="M735.946-64c-33.055 0-65.829 5.844-97.878 17.487-141.19 51.29-272.245 134.826-379 241.58s-190.292 237.81-241.58 379c-16.481 45.374-21.345 92.212-14.451 139.218 6.458 44.030 23.513 86.774 49.324 123.613 25.925 37 60.488 67.775 99.95 88.996 42.082 22.629 88.014 34.105 136.524 34.105 15.087 0 28.127-10.542 31.289-25.293l50.226-234.388c2.274-10.614-0.988-21.657-8.662-29.333l-85.822-85.82c80.961-160.965 212.331-292.336 373.297-373.297l85.82 85.822c7.676 7.674 18.721 10.932 29.333 8.662l234.388-50.226c14.753-3.162 25.293-16.201 25.293-31.289 0-48.51-11.476-94.444-34.107-136.526-21.221-39.462-51.996-74.025-88.996-99.95-36.836-25.811-79.581-42.866-123.613-49.324-13.797-2.026-27.593-3.036-41.334-3.038zM263.267 894.603c-63.987-7.064-120.781-40.602-158.495-94.43-42.41-60.528-52.3-134.974-27.133-204.256 98.604-271.441 310.837-483.674 582.278-582.278 69.279-25.167 143.726-15.279 204.256 27.133 53.828 37.714 87.366 94.508 94.43 158.495l-190.674 40.858-89.628-89.628c-9.538-9.538-24.029-12.072-36.233-6.336-190.372 89.436-344.47 243.534-433.906 433.906-5.734 12.205-3.202 26.697 6.336 36.233l89.628 89.628z" />
<glyph unicode="&#xe927;" glyph-name="envelope" d="M927.999 832.001h-831.999c-52.938 0-96.001-43.063-96.001-96.001v-576c0-52.938 43.063-96.001 96.001-96.001h831.999c52.938 0 96.001 43.063 96.001 96.001v576c0 52.938-43.063 96.001-96.001 96.001zM927.999 768.001c4.348 0 8.484-0.902 12.265-2.477l-428.264-371.18-428.267 371.18c3.781 1.573 7.917 2.477 12.265 2.477zM927.999 128.001h-831.999c-17.656 0-32.001 14.343-32.001 32.001v537.905l427.031-370.094c6.032-5.218 13.501-7.813 20.969-7.813s14.937 2.593 20.969 7.813l427.031 370.094v-537.907c-0.002-17.656-14.345-31.999-32.001-31.999z" />
<glyph unicode="&#xe928;" glyph-name="pin-2" d="M883.094 691.672c-36.506 117.944-131.336 213.554-247.482 249.524-123.682 38.302-252.624 17.51-353.76-57.044-48.46-35.722-88.672-82.84-116.286-136.254-28.54-55.206-43.624-117.358-43.624-179.74 0-85.096 26.918-165.964 77.846-233.862l312.252-398.296 312.254 398.296c76.212 101.618 97.646 231.878 58.8 357.376zM776.466 370.552l-264.426-337.314-264.428 337.314c-42.95 57.378-65.654 125.704-65.654 197.606 0 105.066 50.656 205.136 135.506 267.684 85.628 63.122 195.118 80.624 300.396 48.024 97.504-30.196 177.168-110.64 207.906-209.938 33.056-106.804 15.086-217.364-49.3-303.376zM512.040 778.21c-115.822 0-210.052-94.23-210.052-210.052s94.23-210.052 210.052-210.052 210.052 94.23 210.052 210.052c0 115.822-94.23 210.052-210.052 210.052zM512.040 418.12c-82.73 0-150.038 67.306-150.038 150.038 0 82.73 67.306 150.038 150.038 150.038s150.038-67.306 150.038-150.038c0-82.73-67.308-150.038-150.038-150.038z" />
<glyph unicode="&#xe929;" glyph-name="left-quotes-sign" d="M0.218 249.438c0-134.628 109.131-243.759 243.757-243.759 134.628 0 243.759 109.131 243.759 243.759s-109.131 243.757-243.759 243.757c-27.668 0-54.152-4.823-78.946-13.323 54.856 314.613 300.193 517.503 72.766 350.52-252.183-185.165-237.848-573.505-237.566-580.622 0-0.111-0.012-0.21-0.012-0.333zM536.483 249.438c0-134.628 109.131-243.759 243.759-243.759s243.759 109.131 243.759 243.759-109.133 243.757-243.761 243.757c-27.67 0-54.152-4.823-78.946-13.323 54.856 314.613 300.193 517.503 72.766 350.52-252.183-185.165-237.85-573.505-237.566-580.622 0-0.111-0.012-0.21-0.012-0.333z" />
<glyph unicode="&#xe92a;" glyph-name="phone-call" d="M943.158 285.776c-63.166 0-125.035 9.863-183.726 29.265-28.618 9.863-61.064 2.264-79.925-16.924l-116.251-87.795c-133.337 71.141-218.706 156.457-288.983 288.93l85.422 113.502c21.504 21.557 29.212 52.979 19.996 82.459-19.458 58.962-29.373 120.887-29.373 183.944 0 44.572-36.27 80.842-80.842 80.842h-188.633c-44.572 0-80.842-36.27-80.842-80.842 0-520.030 423.128-943.158 943.158-943.158 44.572 0 80.842 36.27 80.842 80.842v188.092c0 44.572-36.27 80.842-80.842 80.842zM970.106 16.842c0-14.875-12.126-26.948-26.948-26.948-490.336 0-889.264 398.928-889.264 889.264 0 14.875 12.126 26.948 26.948 26.948h188.633c14.822 0 26.948-12.073 26.948-26.948 0-68.824 10.78-136.409 31.905-200.489 3.125-10.077 0.594-20.481-9.269-30.72l-98.089-129.886c-6.197-8.246-7.167-19.293-2.478-28.456 79.925-156.995 176.991-254.115 335.119-335.119 9.107-4.742 20.264-3.772 28.509 2.478l132.69 100.568c7.223 7.114 17.838 9.592 27.433 6.414 64.459-21.289 132.043-32.067 200.921-32.067 14.822 0 26.948-12.073 26.948-26.948v-188.092z" />
<glyph unicode="&#xe92b;" glyph-name="tag" d="M984.679 393.724l-397.404 397.625c-20.986 20.986-49.040 32.694-78.641 32.694-2.43 0-4.86 0-7.29-0.221l-287.395-18.998c-31.147-1.988-56.33-27.171-58.318-58.318l-6.848-102.057c-14.58 8.394-28.496 18.998-41.088 31.589-30.706 30.706-49.703 68.922-53.679 107.801-3.755 36.891 6.848 69.805 29.822 92.779 48.82 48.82 138.727 37.995 200.801-23.858 10.382-10.382 27.171-10.382 37.553 0s10.382 27.171 0 37.553c-83.060 82.397-206.765 93-276.129 23.637-34.461-34.461-50.366-82.397-45.064-135.634 5.081-51.029 29.601-100.732 68.922-140.052 22.090-22.090 47.715-39.542 74.886-51.47l-8.394-127.903c-2.209-32.031 9.72-63.399 32.473-86.152l397.625-397.625c25.183-25.183 58.539-38.879 94.105-38.879v0c35.565 0 68.922 13.917 94.105 38.879l230.402 230.402c25.183 25.183 38.879 58.539 38.879 94.105-0.221 35.786-14.138 69.143-39.321 94.105zM947.347 243.289l-230.623-230.623c-15.021-15.021-35.124-23.416-56.551-23.416v0c-21.428 0-41.53 8.394-56.551 23.416l-397.625 397.625c-11.929 11.929-18.114 28.276-17.010 45.064l7.732 115.753c4.418-0.663 8.836-1.325 13.254-1.767 6.627-0.663 13.254-1.105 19.66-1.105 45.285 0 85.71 15.905 115.753 45.948 10.382 10.382 10.382 27.171 0 37.553s-27.171 10.382-37.553 0c-22.974-22.974-55.888-33.577-92.779-29.822-5.081 0.442-9.941 1.325-14.8 2.209l7.953 118.404c0.221 4.86 4.197 8.615 9.057 9.057l287.395 18.998c1.325 0 2.651 0.221 3.976 0.221 15.463 0 30.485-6.185 41.309-17.010l397.404-397.404c15.021-15.021 23.416-35.124 23.416-56.551s-8.394-41.53-23.416-56.551z" />
<glyph unicode="&#xe92c;" d="M1002.668 469.638h-929.821l347.601 347.557c8.186 8.474 7.95 21.98-0.524 30.166-8.268 7.984-21.374 7.984-29.64 0l-383.994-383.994c-8.342-8.32-8.358-21.828-0.038-30.17 0.012-0.012 0.026-0.026 0.038-0.038l383.994-383.994c8.186-8.474 21.69-8.708 30.166-0.524 8.474 8.186 8.708 21.69 0.524 30.166-0.172 0.178-0.346 0.352-0.524 0.524l-347.603 347.641h929.819c11.782 0 21.334 9.552 21.334 21.334s-9.55 21.334-21.332 21.334z" />
<glyph unicode="&#xe92d;" d="M405.344 42.976c-5.662-0.010-11.096 2.23-15.104 6.23l-383.994 383.994c-8.328 8.33-8.328 21.834 0 30.166l383.994 383.994c8.474 8.186 21.98 7.95 30.166-0.524 7.984-8.268 7.984-21.374 0-29.64l-368.89-368.892 368.89-368.89c8.342-8.32 8.358-21.828 0.038-30.17-4.002-4.010-9.434-6.266-15.1-6.268z" />
<glyph unicode="&#xe92e;" d="M1002.668 426.97h-981.319c-11.782 0-21.334 9.552-21.334 21.334s9.552 21.334 21.334 21.334h981.319c11.782 0 21.334-9.552 21.334-21.334s-9.552-21.334-21.334-21.334z" />
<glyph unicode="&#xe92f;" d="M1022.378 440.092c3.298 7.978 1.462 17.158-4.65 23.254l-384 384c-8.474 8.186-21.98 7.95-30.166-0.524-7.984-8.268-7.984-21.374 0-29.64l347.606-347.606h-929.834c-11.782-0.002-21.334-9.554-21.334-21.336s9.552-21.334 21.334-21.334h929.834l-347.562-347.562c-8.474-8.186-8.71-21.69-0.524-30.166 8.186-8.474 21.69-8.708 30.166-0.524 0.178 0.172 0.352 0.346 0.524 0.524l384 384c1.972 1.982 3.538 4.33 4.606 6.914z" />
<glyph unicode="&#xe930;" d="M618.666 42.908c-11.782-0.022-21.35 9.514-21.372 21.296-0.010 5.68 2.246 11.13 6.268 15.142l368.94 368.894-368.94 368.896c-8.186 8.474-7.95 21.98 0.524 30.166 8.268 7.984 21.374 7.984 29.64 0l384-384c8.328-8.33 8.328-21.834 0-30.166l-384-384c-3.996-3.988-9.412-6.228-15.060-6.228z" />
<glyph unicode="&#xe931;" d="M1002.666 426.908h-981.332c-11.782 0-21.334 9.55-21.334 21.332s9.552 21.334 21.334 21.334h981.334c11.782 0 21.334-9.552 21.334-21.334-0.002-11.782-9.554-21.332-21.336-21.332z" />
<glyph unicode="&#xe932;" glyph-name="search-interface-symbol" d="M1014.294-8.29l-264.38 260.155c69.233 75.219 111.771 174.698 111.771 284.164-0.033 234.168-192.91 423.971-430.854 423.971s-430.821-189.803-430.821-423.971 192.877-423.971 430.821-423.971c102.808 0 197.102 35.56 271.168 94.678l265.406-261.181c12.932-12.74 33.927-12.74 46.859 0 12.962 12.738 12.962 33.415 0.030 46.155zM430.831 177.289c-201.326 0-364.533 160.613-364.533 358.74s163.207 358.74 364.533 358.74c201.328 0 364.533-160.613 364.533-358.74s-163.205-358.74-364.533-358.74z" />
<glyph unicode="&#xe933;" glyph-name="at" d="M742.992-11.040c-88.272-39.728-164.784-52.96-269.248-52.96-244.224 0-459.040 175.088-459.040 463.44 0 300.144 217.744 560.56 550.272 560.56 258.944 0 444.32-178.032 444.32-425.2 0-214.8-120.64-350.16-279.536-350.16-69.152 0-119.168 35.312-126.528 113.296h-2.944c-45.6-75.040-111.808-113.296-189.792-113.296-95.632 0-164.784 70.624-164.784 191.28 0 179.488 132.416 342.8 344.272 342.8 64.736 0 138.288-16.192 175.088-36.784l-44.128-272.192c-14.704-86.784-4.416-126.528 36.784-127.984 63.264-1.472 142.704 79.456 142.704 248.64 0 191.264-123.584 339.872-351.648 339.872-225.088 0-422.256-176.56-422.256-457.568 0-245.696 157.424-385.472 376.656-385.472 75.040 0 154.496 16.176 213.328 47.088l26.48-85.36zM612.048 596.592c-11.776 2.944-26.496 5.888-45.616 5.888-97.088 0-173.616-95.632-173.616-208.912 0-55.904 25.024-91.216 73.568-91.216 54.432 0 111.824 69.152 125.056 154.48l20.608 139.76z" />
<glyph unicode="&#xe934;" glyph-name="at-1" d="M669.926 369.698l96.376 332.732h-55.296l-19.2-68.88c-7.97 22.358-20.326 41.404-36.95 56.798-25.924 23.962-61.406 36.096-105.506 36.096-42.462 0-81.716-11.98-116.6-35.602-34.134-23.006-63.624-52.94-87.604-88.884-23.74-35.652-42.274-75.452-55.022-118.272-12.732-42.82-19.2-84.924-19.2-125.132 0-22.46 3.090-44.766 9.148-66.168 6.196-22.016 16.162-41.762 29.696-58.658 13.568-16.948 30.908-30.874 51.542-41.404 20.804-10.684 45.892-16.094 74.598-16.094 23.79 0 46.25 4.114 66.782 12.236 20.104 7.97 38.348 17.902 54.29 29.628 15.992 11.776 30.072 25.412 41.882 40.5 2.236 2.85 4.404 5.718 6.52 8.568 3.038-25.412 13.004-45.414 29.832-59.852 24.132-20.6 55.092-31.078 92.074-31.078 43.912 0 83.576 9.268 117.88 27.528 34.168 18.192 63.112 43.468 86.084 75.196 22.716 31.488 40.278 69.24 52.19 112.248 11.878 42.77 17.902 89.242 17.902 138.222 0 61.116-11.862 118.766-35.226 171.4-23.33 52.48-56.49 98.612-98.628 137.062-42.036 38.298-92.45 68.574-149.862 89.992-57.43 21.3-121.002 32.12-188.928 32.12-71.014 0-137.916-13.38-198.894-39.748-60.98-26.368-114.962-62.958-160.426-108.834-45.5-45.926-81.716-100.522-107.64-162.236-25.942-61.816-39.082-129.092-39.082-199.834s12.424-137.916 36.916-199.68c24.558-61.816 59.614-116.6 104.124-162.936 44.612-46.472 99.038-83.626 161.706-110.336 62.768-26.81 133.186-40.396 209.252-40.396 82.62 0 159.54 17.494 228.66 52.036 68.898 34.492 128.666 81.356 177.562 139.366l8.174 9.676-39.424 34.134-8.38-9.932c-42.24-50.040-95.932-91.836-159.54-124.33-63.3-32.29-132.95-48.622-207.052-48.622-67.38 0-129.86 12.236-185.77 36.3-55.996 24.116-104.67 57.498-144.622 99.208-40.056 41.762-71.492 91.084-93.44 146.688-21.982 55.654-33.144 115.798-33.144 178.824 0 59.46 11.35 117.556 33.758 172.698s53.896 104.568 93.542 146.842c39.662 42.206 87.484 76.254 142.132 101.222 54.648 24.918 115.474 37.546 180.872 37.546 59.478 0 115.456-9.626 166.366-28.57 50.808-18.944 95.42-45.722 132.676-79.514 37.206-33.844 66.696-74.24 87.706-119.962 20.924-45.772 31.54-96.308 31.54-150.204 0-38.81-4.37-76.852-12.988-113.152-8.516-35.788-21.88-68.13-39.732-96.204-17.494-27.528-40.328-49.938-67.874-66.628-27.238-16.486-60.484-24.866-98.816-24.866-20.224 0-37.478 5.018-51.218 14.882-12.578 9.13-18.706 25.362-18.706 49.732 0 9.932 1.28 22.204 3.84 36.454 2.578 14.458 5.65 27.94 9.148 40.074zM643.712 462.558c-9.506-36.694-23.74-72.994-42.292-107.98-18.398-34.594-41.54-64.87-68.762-89.992-26.3-24.218-55.74-35.994-90.094-35.994-40.652 0-69.41 11.674-87.91 35.686-19.064 24.746-28.724 55.978-28.724 92.928 0 33.382 5.24 69.324 15.564 106.734 10.274 37.29 25.292 72.090 44.596 103.476 19.046 30.874 42.838 56.85 70.708 77.108 26.966 19.61 58.094 29.576 92.552 29.576 19.252 0 35.822-3.208 49.238-9.42 13.432-6.366 24.166-14.796 32.768-25.72 8.756-11.178 15.412-24.32 19.832-39.1 4.54-15.24 6.81-31.334 6.81-47.718-0.002-22.82-4.814-52.942-14.286-89.584z" />
<glyph unicode="&#xe935;" glyph-name="basket" d="M512 448.023c11.039 0 20 8.961 20 20s-8.961 20-20 20-20-8.961-20-20 8.961-20 20-20zM944 608.023h-118.273l-181.938 250.305c-16.344 28.008-52.344 37.977-80.938 22.141-28.984-16.102-39.406-52.609-23.297-81.602 0.461-0.82 0.969-1.609 1.539-2.359l142.703-188.484h-343.594l142.703 188.484c0.563 0.75 1.078 1.539 1.539 2.359 16.070 28.922 5.766 65.461-23.32 81.617-28.531 15.805-64.531 5.844-80.906-22.141l-181.945-250.32h-118.273c-44.109 0-80-35.891-80-80 0-34.789 22.578-65.078 54.383-75.797 3.391-2.625 7.625-4.203 12.234-4.203 0.922 0 1.789-0.055 2.695-0.18 8.609-1.156 15.43-7.688 16.992-16.234l68.039-374.328c5.195-28.539 30.023-49.258 59.039-49.258h597.234c29.016 0 53.844 20.719 59.039 49.266l68.039 374.313c1.563 8.555 8.391 15.086 17.031 16.242 0.875 0.125 1.742 0.18 2.656 0.18 4.641 0 8.906 1.594 12.297 4.25 31.828 10.789 54.32 41.023 54.32 75.75 0 44.109-35.891 80-80 80zM573.977 819.344c-4.57 9.461-1.023 20.984 8.273 26.141 9.68 5.367 21.883 1.906 27.219-7.711 0.391-0.719 0.836-1.406 1.313-2.063l165.492-227.688h-42.313zM413.219 835.703c0.477 0.656 0.906 1.336 1.305 2.039 5.352 9.625 17.563 13.094 27.203 7.758 9.313-5.172 12.875-16.68 8.297-26.156l-159.984-211.32h-42.313zM944 488.023h-352c-11.047 0-20-8.953-20-20s8.953-19.797 20-19.797h308.797c-1.047-2.984-1.875-6.078-2.453-9.266l-68.047-374.516c-1.727-9.516-10.008-16.422-19.68-16.422h-597.234c-9.68 0-17.953 6.906-19.688 16.414l-68.039 374.328c-0.578 3.188-1.406 6.281-2.453 9.258h308.797c11.047 0 20 8.953 20 20s-8.953 20-20 20h-352c-22.242 0-40 18.125-40 40 0 22.055 17.945 40 40 40h864c22.055 0 40-17.945 40-40 0-22.211-18.172-40-40-40zM512 388.023c-33.086 0-60-26.914-60-60v-160c0-33.086 26.914-60 60-60s60 26.914 60 60v160c0 33.148-26.852 60-60 60zM532 168.023c0-11.031-8.969-20-20-20s-20 8.969-20 20v160c0 11.031 8.969 20 20 20 11.039 0 20-8.961 20-20zM712 108.023c33.086 0 60 26.914 60 60v160c0 33.148-26.852 60-60 60-33.086 0-60-26.914-60-60v-160c0-33.086 26.914-60 60-60zM692 328.023c0 11.031 8.969 20 20 20 11.039 0 20-8.961 20-20v-160c0-11.031-8.969-20-20-20s-20 8.969-20 20zM312 388.023c-33.086 0-60-26.914-60-60v-160c0-33.086 26.914-60 60-60s60 26.914 60 60v160c0 33.148-26.852 60-60 60zM332 168.023c0-11.031-8.969-20-20-20s-20 8.969-20 20v160c0 11.031 8.969 20 20 20 11.039 0 20-8.953 20-20z" />
<glyph unicode="&#xe936;" glyph-name="chat" d="M921.494 81.674c178.238 205.582 116.222 525.184-126.188 649.86-70.008 135.568-211.508 228.466-374.306 228.466-232.128 0-420.976-188.86-420.976-421 0-102.198 36.176-198.854 102.474-275.326l-93.548-92.32c-18.96-18.714-5.826-51.224 20.93-51.354l225.912-1.076c77.85-113.282 206.456-182.924 347.2-182.924 0.288 0 390.892 1.998 391.122 2 26.666 0.128 39.95 32.58 20.928 51.354zM165.524 283.966c-68.034 68.16-105.504 158.734-105.504 255.034 0 199.056 161.936 361 360.98 361s360.98-161.944 360.98-361c0-190.746-150.946-362.538-372.686-360.806l-306.516 1.46 62.586 61.764c11.836 11.684 11.906 30.778 0.16 42.548zM602.992-4c-105.268 0-203.114 44.978-271.13 122.562 114.208-0.752 83.89-0.562 89.138-0.562 270.804 0 473.012 254.018 409.378 519.234 165.932-135.548 179.522-383.558 28.090-535.268-11.748-11.77-11.676-30.866 0.16-42.548l62.586-61.764c-0.238 0-317.99-1.654-318.222-1.654zM242.010 628h359.98c16.568 0 29.998 13.432 29.998 30s-13.43 30-29.998 30h-359.98c-16.568 0-29.998-13.432-29.998-30s13.432-30 29.998-30zM242.010 508h359.98c16.568 0 29.998 13.432 29.998 30s-13.43 30-29.998 30h-359.98c-16.568 0-29.998-13.432-29.998-30s13.432-30 29.998-30zM242.010 388h359.98c16.568 0 29.998 13.432 29.998 30s-13.43 30-29.998 30h-359.98c-16.568 0-29.998-13.432-29.998-30s13.432-30 29.998-30z" />
<glyph unicode="&#xe937;" glyph-name="reply" d="M992 21.333c-11.52 0-22.357 6.229-28.075 16.683l-0.896 1.621c-95.701 172.843-278.059 280.363-475.861 280.363h-60.501v-181.333c0-12.843-7.723-24.448-19.541-29.483-11.733-4.949-25.557-2.475-34.731 6.528l-362.667 352c-6.229 6.016-9.728 14.293-9.728 22.955s3.499 16.939 9.728 22.955l362.667 352c9.216 8.96 22.997 11.52 34.731 6.528 11.819-5.035 19.541-16.64 19.541-29.483v-181.419c330.368-5.717 597.333-276.224 597.333-607.915 0-14.635-9.899-27.392-24.064-31.019-2.645-0.683-5.291-0.981-7.936-0.981zM394.667 384h92.501c178.176 0 345.131-78.037 459.264-209.536-55.211 241.877-272.085 422.869-530.432 422.869h-21.333c-17.664 0-32 14.336-32 32v137.685l-284.715-276.352 284.715-276.352v137.685c0 17.664 14.336 32 32 32z" />
<glyph unicode="&#xe938;" glyph-name="earth-grid-symbol" d="M929.893 743.218c-7.793 11.007-15.923 21.741-24.577 32.076-93.981 112.781-235.414 184.706-393.316 184.706-0.294 0-0.525-0.021-0.777-0.021-0.168 0-0.294 0.021-0.462 0.021-0.567 0-1.155-0.063-1.765-0.063-156.705-0.903-296.899-72.618-390.333-184.643-8.612-10.356-16.784-21.069-24.577-32.076-59.153-83.499-94.086-185.315-94.086-295.218 0-109.882 34.912-211.74 94.086-295.218 7.793-11.007 15.965-21.741 24.577-32.076 93.414-112.025 233.608-183.739 390.333-184.643 0.609 0 1.197-0.063 1.765-0.063 0.168 0 0.294 0.021 0.441 0.021 0.252 0 0.483-0.021 0.777-0.021 157.923 0 299.335 71.904 393.337 184.685 8.612 10.335 16.784 21.090 24.577 32.097 59.153 83.499 94.086 185.315 94.086 295.239 0 109.861-34.933 211.698-94.086 295.197zM362.332 893.411c-47.053-45.394-86.167-111.752-113.117-191.386-36.109 13.486-68.606 29.723-96.628 48.083 54.931 65.245 127.17 115.491 209.745 143.303zM127.926 717.99c31.845-21.258 68.648-39.848 109.336-55.162-17.561-64.152-27.644-135.363-28.022-210.501h-167.145c0.903 98.833 32.727 190.293 85.83 265.663zM43.671 410.315h166.388c2.71-62.892 12.267-122.57 27.161-177.165-40.71-15.313-77.491-33.904-109.294-55.183-47.074 66.82-77.428 146.265-84.255 232.347zM152.714 145.976c28.022 18.317 60.434 34.513 96.46 47.999 26.951-79.655 66.085-145.971 113.159-191.365-82.575 27.791-154.667 78.142-209.619 143.366zM490.994-20.476c-86.209 11.805-160.612 100.22-202.792 227.558 60.812 18.233 129.649 29.282 202.792 31.068v-258.626zM490.994 280.12c-77.134-1.849-149.836-13.759-214.576-33.631-13.255 50.33-21.741 105.555-24.283 163.805h238.859v-130.174zM490.994 452.327h-239.741c0.378 70.559 9.558 137.211 25.354 197.12 64.656-19.809 137.316-31.74 214.366-33.568v-163.553zM490.994 657.85c-73.101 1.786-141.916 12.793-202.666 31.026 42.159 127.275 116.499 215.774 202.666 227.6v-258.626zM981.841 452.327h-169.56c-0.378 74.823-10.335 145.74-27.77 209.661 41.592 15.46 79.172 34.345 111.542 55.981 53.082-75.369 84.885-166.809 85.788-265.642zM871.349 750.066c-28.589-18.716-61.821-35.206-98.791-48.839-27.203 80.726-66.883 147.882-114.672 193.444 84.108-27.539 157.671-78.352 213.463-144.605zM533.006 916.16c85.263-13.171 158.7-101.501 200.418-227.915-60.182-17.834-128.221-28.631-200.418-30.396v258.311zM533.006 615.859c76.147 1.807 147.987 13.486 212.076 32.874 15.712-59.741 24.829-126.141 25.186-196.427h-237.263v163.553zM533.006 410.315h236.401c-2.542-57.977-10.986-112.949-24.115-163.133-64.173 19.452-136.098 31.11-212.245 32.937l-0.042 130.195zM533.006-20.16v258.29c72.24-1.765 140.278-12.562 200.544-30.396-41.781-126.456-115.302-214.723-200.544-227.894zM657.887 1.308c47.789 45.541 87.553 112.655 114.756 193.402 36.887-13.612 70.076-30.081 98.623-48.755-55.792-66.232-129.271-117.087-213.379-144.647zM896.053 177.968c-32.37 21.636-69.95 40.563-111.563 56.002 14.746 54.364 24.22 113.768 26.888 176.324h168.909c-6.827-86.062-37.097-165.527-84.234-232.326z" />
<glyph unicode="&#xe939;" glyph-name="twitter" d="M1024 765.504c-38.080-16.704-78.656-27.776-120.96-33.152 43.52 25.984 76.736 66.816 92.352 116.032-40.576-24.192-85.376-41.28-133.12-50.816-38.528 41.024-93.44 66.432-153.344 66.432-116.224 0-209.792-94.336-209.792-209.984 0-16.64 1.408-32.64 4.864-47.872-174.528 8.512-328.96 92.16-432.704 219.584-18.112-31.424-28.736-67.392-28.736-106.112 0-72.704 37.44-137.152 93.248-174.464-33.728 0.64-66.816 10.432-94.848 25.856 0-0.64 0-1.472 0-2.304 0-102.016 72.768-186.752 168.192-206.272-17.088-4.672-35.712-6.912-55.040-6.912-13.44 0-27.008 0.768-39.744 3.584 27.2-83.136 104.384-144.256 196.16-146.24-71.424-55.872-162.112-89.536-260.288-89.536-17.216 0-33.728 0.768-50.24 2.88 92.992-59.968 203.2-94.208 322.048-94.208 386.304 0 597.504 320 597.504 597.376 0 9.28-0.32 18.24-0.768 27.136 41.664 29.568 76.672 66.496 105.216 108.992z" />
<glyph unicode="&#xe93a;" glyph-name="armchair" d="M926.706 373.448c-1.122 0.054-2.438 0.085-3.761 0.085-11.772 0-22.972-2.447-33.12-6.861l0.537 0.208v72.982c0 0.017 0 0.036 0 0.056 0 21.831-17.655 39.538-39.466 39.624h-363.162c-21.818-0.085-39.472-17.792-39.472-39.622 0-0.020 0-0.041 0-0.061v0.003-72.978c-9.607 4.204-20.803 6.65-32.57 6.65-1.328 0-2.649-0.031-3.961-0.093l0.186 0.007c-41.39-1.916-75.302-35.4-77.2-76.218-1.856-39.786 26.56-74.9 65.582-82.372v-220.514c0.016-14.046 11.398-25.429 25.442-25.446h46.128c14.038 0.020 25.414 11.391 25.444 25.425v0.003l0.032 47.4h343.94l0.030-47.4c0.031-14.038 11.409-25.408 25.446-25.426h46.126c14.047 0.016 25.43 11.399 25.446 25.444v220.514c39.020 7.472 67.436 42.586 65.58 82.37-1.912 40.824-35.818 74.304-77.206 76.22zM472.262 439.862c0 0.024 0 0.052 0 0.081 0 8.571 6.912 15.527 15.465 15.599h363.161c8.561-0.071 15.474-7.028 15.474-15.599 0-0.028 0-0.057 0-0.085v0.004-88.584c-0.2-0.184-0.4-0.356-0.6-0.542-15.225-14.355-24.704-34.659-24.704-57.178 0-0.013 0-0.025 0-0.038v0.002l-0.014-1.442c-0.018-1.522-0.040-3.224 0.074-4.958l0.040-62.146c-29.747 8.493-65.233 15.346-101.61 19.214l-2.858 0.246 22.122 60.914c0.457 1.219 0.722 2.629 0.722 4.1 0 6.628-5.373 12.001-12.001 12.001-5.157 0-9.554-3.253-11.252-7.818l-0.027-0.083-24.346-67.032c-12.607 0.869-27.324 1.364-42.157 1.364-13.014 0-25.938-0.381-38.764-1.133l1.77 0.083-30.8 66.158c-1.984 4.052-6.078 6.793-10.811 6.793-6.627 0-12-5.373-12-12 0-1.783 0.389-3.474 1.086-4.995l-0.031 0.075 27-58c-41.016-4.035-78.322-11.125-114.38-21.206l4.634 1.106 0.044 62.366c0.114 1.734 0.092 3.432 0.070 4.948l-0.014 1.454c0 0.011 0 0.025 0 0.038 0 22.518-9.478 42.822-24.663 57.14l-0.039 0.036c-0.2 0.186-0.4 0.356-0.6 0.54zM497.446 199.846c37.142 10.994 80.534 18.955 125.215 22.288l2.107 0.126c0.2-0.012 0.42-0.046 0.632-0.046 0.81 0.004 1.598 0.089 2.359 0.245l-0.077-0.013c12.623 0.903 27.351 1.418 42.2 1.418 60.998 0 119.967-8.689 175.736-24.898l-4.44 1.105 0.058-89.11h-343.852zM471.862-7.104h-46.126c-0.798 0.001-1.444 0.648-1.444 1.446v0 226.058c-0.004 8.945-6.706 16.323-15.363 17.391l-0.085 0.009c-28.386 3.35-50.196 27.27-50.196 56.283 0 0.713 0.013 1.423 0.039 2.129l-0.003-0.102c1.332 28.574 25.2 52.012 54.342 53.362q1.354 0.062 2.702 0.064c13.199-0.010 25.382-4.346 35.213-11.666l-0.157 0.112c1.118-1.43 2.522-2.584 4.13-3.388l0.070-0.032c0.438-0.4 0.88-0.778 1.306-1.186 10.633-9.998 17.26-24.152 17.276-39.853v-0.003c0-0.57 0-1.168 0.016-1.778 0.016-1.132 0.034-2.418-0.032-3.184-0.026-0.328-0.040-0.658-0.040-0.988l-0.128-188.6-0.030-45.222v-0.034l-0.040-59.364c0-0.002 0-0.005 0-0.008 0-0.799-0.647-1.446-1.446-1.446-0.001 0-0.003 0-0.004 0v0zM497.356 65.722l0.014 21.24h343.882l0.016-21.24zM929.78 237.8c-8.742-1.076-15.445-8.455-15.448-17.4v0-226.056c0-0.799-0.647-1.446-1.446-1.446v0h-46.124c0 0 0 0 0 0-0.798 0-1.446 0.646-1.448 1.444v0l-0.142 214.838v0.112l-0.052 78.282c0 0.33-0.014 0.66-0.042 0.988-0.064 0.774-0.046 2.064-0.034 3.2 0 0.6 0.016 1.2 0.016 1.758 0.017 15.704 6.645 29.857 17.249 39.827l0.029 0.027c0.426 0.4 0.87 0.8 1.306 1.188 1.679 0.836 3.082 1.991 4.18 3.395l0.020 0.027c9.673 7.207 21.855 11.542 35.050 11.552h0.002q1.35 0 2.704-0.064c29.138-1.35 53-24.788 54.344-53.362 0.023-0.603 0.036-1.312 0.036-2.023 0-29.015-21.812-52.937-49.933-56.261l-0.267-0.026zM392.714 603.642c5.312-19.364 22.588-33.662 42.824-33.662s37.508 14.298 42.824 33.662h15.36v-13.042c0-6.627 5.373-12 12-12v0h339.892c6.627 0 12 5.373 12 12v0 265.6c0 6.627-5.373 12-12 12v0h-339.892c-6.627 0-12-5.373-12-12v0-133.576c-13.731 9.536-30.31 15.949-48.235 17.854l-0.459 0.040c-5.51 103.856-87.894 186.578-188.38 186.578-103.694 0-188.108-88.090-188.666-196.588-0.020-0.278-0.042-0.556-0.042-0.838v-736.774h-35.94c-6.627 0-12-5.373-12-12s5.373-12 12-12v0h108.4c6.627 0 12 5.373 12 12s-5.373 12-12 12v0h-48.46v735.962c0.010 0.2 0.028 0.384 0.028 0.58 0 95.76 73.876 173.666 164.68 173.666 87.302 0 158.938-72.010 164.342-162.66-53.187-6.080-94.128-50.801-94.2-105.099v-19.703c0-6.627 5.373-12 12-12v0zM435.538 593.98c-7.13 0.119-13.346 3.918-16.846 9.575l-0.050 0.087h33.8c-3.551-5.745-9.771-9.545-16.887-9.662h-0.017zM517.722 603.642h10.146c6.627 0 12 5.373 12 12v0 4.976l60.16 59.49 72.834-77.508h-155.14zM705.794 602.604l-1.834 1.952 56.656 47.732 53.052-49.688zM833.614 844.204v-227.404l-64.374 60.292c-2.14 2.009-5.028 3.243-8.204 3.243-2.954 0-5.658-1.067-7.749-2.837l0.018 0.014-65.8-55.44-78.414 83.442c-2.144 2.279-5.161 3.716-8.513 3.778h-0.011c-0.098 0.003-0.213 0.005-0.328 0.005-3.256 0-6.203-1.326-8.329-3.468l-0.001-0.001-53.528-52.926c-3.105 18.026-10.393 33.96-20.832 47.31l0.174-0.232v144.22zM350.8 635.338c0.052 45.128 36.622 81.698 81.745 81.75h1.581c45.128-0.053 81.697-36.622 81.75-81.745v-5.981c-0.2-0.476-0.387-1.050-0.528-1.642l-0.016-0.078h-164.532zM416.686 690.486c-2.202 3.077-5.764 5.059-9.789 5.059-2.602 0-5.011-0.828-6.977-2.236l0.036 0.025c-11.019-7.862-20.242-17.433-27.486-28.424l-0.248-0.4c-1.222-1.849-1.95-4.118-1.95-6.557 0-6.628 5.373-12.001 12.001-12.001 4.189 0 7.876 2.146 10.023 5.399l0.028 0.045c5.811 8.837 12.966 16.261 21.263 22.19l0.251 0.17c3.077 2.202 5.059 5.764 5.059 9.789 0 2.602-0.828 5.011-2.236 6.977l0.025-0.036zM681.292 696.642c23.335 0 42.252 18.917 42.252 42.252s-18.917 42.252-42.252 42.252c-23.335 0-42.252-18.917-42.252-42.252v0c0.027-23.324 18.928-42.225 42.249-42.252h0.003zM681.292 757.146c10.080 0 18.252-8.172 18.252-18.252s-8.172-18.252-18.252-18.252c-10.080 0-18.252 8.172-18.252 18.252v0c0.011 10.076 8.176 18.241 18.251 18.252h0.001z" />
<glyph unicode="&#xe93b;" glyph-name="alarm-clock" d="M979.055 915.029c-60.111 59.686-157.12 59.686-217.231 0-1.6-1.606-2.864-3.515-3.719-5.613-0.746-1.875-1.145-3.869-1.177-5.886-0.049-0.192-0.090-0.384-0.119-0.58 0.002-2.231 0.444-4.44 1.297-6.501 0.842-2.092 2.103-3.99 3.702-5.579l84.507-84.507-32.673-32.656c-81.858 75.665-189.226 117.701-300.697 117.726-0.29 0.085-0.512 0.239-0.802 0.239s-0.512-0.154-0.802-0.154c-111.486-0.047-218.858-42.121-300.697-117.829l-32.673 32.673 84.507 84.507c1.6 1.589 2.86 3.487 3.702 5.579 0.853 2.060 1.295 4.27 1.297 6.501 0 0.205-0.102 0.375-0.119 0.58 0.015 3.937-1.516 7.725-4.265 10.544-0.256 0.29-0.341 0.648-0.614 0.921-59.991 60-157.265 60.008-217.265 0.017-60.002-59.991-60.008-157.265-0.017-217.265 0.239-0.256 0.58-0.324 0.836-0.563 1.391-1.309 2.994-2.372 4.743-3.139 1.862-0.732 3.837-1.13 5.835-1.177 0.205 0 0.409-0.119 0.631-0.119 2.222 0.009 4.423 0.444 6.483 1.28 2.088 0.859 3.984 2.122 5.579 3.719l84.541 84.49 32.673-32.673c-166.37-179.848-155.444-460.511 24.403-626.88 15.375-14.221 31.735-27.337 48.963-39.246l-118.119-118.102c-6.778-6.545-6.965-17.348-0.418-24.125 6.545-6.778 17.348-6.965 24.125-0.418 0.143 0.136 0.282 0.277 0.418 0.418l123.476 123.476c137.65-80.306 307.867-80.306 445.518 0l123.476-123.476c6.778-6.547 17.578-6.36 24.125 0.418 6.388 6.611 6.388 17.096 0 23.707l-118.119 118.102c201.532 139.414 251.888 415.805 112.473 617.336-11.873 17.162-24.942 33.467-39.108 48.79l32.707 32.673 84.507-84.507c1.595-1.597 3.491-2.86 5.579-3.719 2.060-0.836 4.261-1.271 6.483-1.28 0.222 0 0.427 0.119 0.631 0.119 1.998 0.047 3.973 0.446 5.835 1.177 1.749 0.768 3.353 1.83 4.743 3.139 0.256 0.239 0.597 0.307 0.836 0.563 59.674 60.109 59.629 157.146 0 217.299zM58.162 734.806c-39.345 53-28.276 127.859 24.725 167.206 42.303 31.402 100.178 31.402 142.481 0l-167.206-167.206zM920.891 465.127h-84.575c-9.422 0-17.062-7.639-17.062-17.062s7.639-17.062 17.062-17.062h84.882c-9.122-212.601-179.394-382.873-391.995-391.995v84.882c0 9.422-7.639 17.062-17.062 17.062s-17.062-7.639-17.062-17.062v-84.882c-212.601 9.122-382.873 179.394-391.995 391.995h84.882c9.422 0 17.062 7.639 17.062 17.062s-7.639 17.062-17.062 17.062h-84.575c3.875 102.288 46.103 199.373 118.289 271.948 0.273 0.239 0.614 0.324 0.87 0.58s0.341 0.597 0.58 0.87c72.56 72.21 169.652 114.442 271.948 118.289v-84.575c0-9.422 7.639-17.062 17.062-17.062s17.062 7.639 17.062 17.062v84.575c102.296-3.845 199.391-46.078 271.948-118.289 0.239-0.273 0.324-0.614 0.58-0.87s0.597-0.341 0.87-0.58c72.184-72.577 114.412-169.66 118.289-271.948zM966.088 734.84l-167.206 167.206c52.768 39.577 127.629 28.881 167.206-23.887 31.848-42.467 31.848-100.854 0-143.319zM754.778 607.866h0.034l-194.061-112.028c-26.205 26.855-69.22 27.382-96.075 1.177-0.397-0.388-0.789-0.781-1.177-1.177l-105.391 60.842c-8.13 4.765-18.582 2.039-23.347-6.091s-2.039-18.582 6.091-23.347c0.064-0.038 0.13-0.075 0.196-0.113l105.561-60.945c-10.587-36.175 10.158-74.082 46.333-84.667 36.175-10.587 74.082 10.158 84.667 46.333 3.662 12.517 3.662 25.819 0 38.336l194.231 112.13c8.13 4.765 10.856 15.219 6.091 23.347-4.724 8.051-15.040 10.815-23.155 6.202zM512.142 413.941c-18.847 0-34.124 15.277-34.124 34.124s15.277 34.124 34.124 34.124 34.124-15.277 34.124-34.124-15.279-34.124-34.124-34.124z" />
<glyph unicode="&#xe93c;" d="M880.874 356.438l-347.562-347.606v929.834c0 11.782-9.552 21.334-21.334 21.334s-21.334-9.552-21.334-21.334v-929.834l-347.562 347.606c-8.474 8.186-21.98 7.95-30.166-0.524-7.984-8.268-7.984-21.374 0-29.64l384-384c8.32-8.342 21.828-8.358 30.17-0.038 0.012 0.012 0.026 0.026 0.038 0.038l384 384c8.186 8.474 7.95 21.98-0.524 30.166-8.268 7.986-21.374 7.986-29.642 0l-0.084-0.002z" />
<glyph unicode="&#xe93d;" d="M511.978-64c-5.662-0.010-11.096 2.23-15.104 6.23l-384 384c-8.186 8.474-7.95 21.98 0.524 30.166 8.268 7.984 21.374 7.984 29.64 0l368.938-368.896 368.896 368.896c8.474 8.186 21.98 7.95 30.166-0.524 7.986-8.268 7.986-21.374 0-29.642l-384-384c-3.996-3.988-9.412-6.228-15.060-6.23z" />
<glyph unicode="&#xe93e;" d="M511.978-64c-11.782 0-21.334 9.552-21.334 21.334v981.332c0.002 11.782 9.552 21.334 21.334 21.334s21.334-9.552 21.334-21.334v-981.334c0-11.78-9.552-21.332-21.334-21.332z" />
<glyph unicode="&#xe93f;" glyph-name="up-arrow" d="M911.101 569.764l-383.954 383.954c-1.962 1.962-4.352 3.542-6.954 4.65-5.206 2.176-11.094 2.176-16.298 0-2.646-1.066-4.992-2.646-6.954-4.65l-384.040-383.954c-8.32-8.32-8.32-21.846 0-30.166s21.846-8.32 30.166 0l347.601 347.561v-929.825c0-11.776 9.558-21.334 21.334-21.334s21.334 9.558 21.334 21.334v929.825l347.559-347.559c4.182-4.182 9.642-6.272 15.104-6.272s10.922 2.090 15.104 6.23c8.32 8.36 8.32 21.844 0 30.206z" />
<glyph unicode="&#xe940;" glyph-name="user-1" d="M874.039 810.039c-96.703 96.703-225.281 149.961-362.039 149.961-136.766 0-265.336-53.258-362.039-149.961s-149.961-225.273-149.961-362.039c0-136.758 53.258-265.336 149.961-362.039s225.273-149.961 362.039-149.961c136.758 0 265.336 53.258 362.039 149.961s149.961 225.281 149.961 362.039c0 136.766-53.258 265.336-149.961 362.039zM256.68 75.227c21.414 123.297 128.258 214.242 255.32 214.242 127.070 0 233.906-90.945 255.32-214.242-72.695-49.945-160.648-79.227-255.32-79.227s-182.625 29.281-255.32 79.227zM349.203 512.266c0 89.773 73.031 162.797 162.797 162.797s162.797-73.031 162.797-162.797c0-89.766-73.031-162.797-162.797-162.797s-162.797 73.031-162.797 162.797zM819.289 116.844c-16.148 57.398-48.219 109.477-93.172 150.156-27.578 24.961-58.969 44.656-92.719 58.539 61 39.789 101.406 108.625 101.406 186.727 0 122.852-99.953 222.797-222.805 222.797s-222.797-99.945-222.797-222.797c0-78.102 40.406-146.937 101.398-186.727-33.742-13.883-65.141-33.57-92.719-58.531-44.945-40.68-77.023-92.758-93.172-150.156-88.945 82.602-144.711 200.477-144.711 331.148 0 249.234 202.766 452 452 452s452-202.766 452-452c0-130.68-55.766-248.555-144.711-331.156z" />
<glyph unicode="&#xe941;" glyph-name="speech-bubble-comment" d="M743.515-64c-6.371 0-12.661 2.023-17.893 5.891l-156.464 115.561c-138.616-17.534-278.991 30.171-377.841 129.039-176.719 176.71-176.719 464.253 0 640.972 176.71 176.71 464.259 176.726 640.972 0 111.757-111.757 156.801-270.15 120.761-424.126-0.236-1.436-0.572-2.863-1.021-4.283-4.888-20.293-11.697-41.553-19.934-61.966l-70.54-167.854c-6.441-15.335-24.107-22.539-39.442-16.098-15.335 6.447-22.546 24.107-16.098 39.442l70.376 167.454c6.927 17.18 12.803 35.496 17.305 54.051 0.063 0.33 0.141 0.66 0.22 0.989 32.116 134.161-6.849 272.402-104.226 369.795-153.247 153.231-402.561 153.216-555.777 0-153.225-153.231-153.225-402.554 0-555.777 88.316-88.316 214.836-129.539 338.61-110.328 7.915 1.285 16.058-0.754 22.523-5.53l135.549-100.107 29.778 70.854c6.432 15.335 24.098 22.53 39.442 16.098 15.335-6.447 22.546-24.107 16.098-39.442l-44.629-106.18c-3.578-8.52-10.873-14.92-19.784-17.377-2.629-0.729-5.31-1.081-7.986-1.081zM702.715 600.152h-362.86c-13.312 0-24.098 10.786-24.098 24.098s10.786 24.098 24.098 24.098h362.858c13.312 0 24.098-10.786 24.098-24.098s-10.784-24.098-24.096-24.098zM702.715 461.989h-362.86c-13.312 0-24.098 10.786-24.098 24.098s10.786 24.098 24.098 24.098h362.858c13.312 0 24.098-10.786 24.098-24.098s-10.784-24.098-24.096-24.098zM547.286 323.829h-207.431c-13.312 0-24.098 10.786-24.098 24.098s10.786 24.098 24.098 24.098h207.431c13.312 0 24.098-10.786 24.098-24.098 0.002-13.312-10.784-24.098-24.098-24.098z" />
<glyph unicode="&#xe942;" glyph-name="left-arrow-1" d="M334.018 797.137c14.436 14.436 37.164 14.436 51.6 0 13.949-13.949 13.949-37.164 0-51.080l-261.641-261.641h863.38c20.126 0 36.643-15.997 36.643-36.123s-16.517-36.643-36.643-36.643h-863.38l261.641-261.153c13.949-14.436 13.949-37.684 0-51.6-14.436-14.436-37.164-14.436-51.6 0l-323.581 323.581c-13.949 13.949-13.949 37.164 0 51.080l323.581 323.581z" />
<glyph unicode="&#xe943;" glyph-name="crane" d="M792.88 417.32v97.020h85.44c0 0 0.001 0 0.001 0 6.627 0 12 5.373 12 12 0 0.453-0.025 0.9-0.074 1.34l0.005-0.054-20.018 185.642c-1.738 16.142-15.289 28.6-31.749 28.6-0.023 0-0.046 0-0.069 0h-169.336c-17.664-0.022-31.978-14.336-32-31.998v-51.202c0-6.627 5.373-12 12-12s12 5.373 12 12v0 51.2c0 4.418 3.582 8 8 8v0h99.8v-220.928h-107.8v124.22c0 6.627-5.373 12-12 12s-12-5.373-12-12v0-203.84c0-6.627 5.373-12 12-12v0h131.8c6.627 0 12 5.373 12 12v0zM792.88 717.86h45.54c0.006 0 0.014 0 0.021 0 4.112 0 7.497-3.113 7.926-7.111l0.003-0.035 18.588-172.374h-72.078zM768.88 429.32h-107.8v43.62h107.8zM443.4 500.7h-55.82c-6.627 0-12-5.373-12-12s5.373-12 12-12v0h55.82c6.627 0 12 5.373 12 12s-5.373 12-12 12v0zM443.4 464.7h-55.82c-6.627 0-12-5.373-12-12s5.373-12 12-12h55.82c6.627 0 12 5.373 12 12s-5.373 12-12 12v0zM443.4 428.7h-55.82c-6.627 0-12-5.373-12-12s5.373-12 12-12v0h55.82c6.627 0 12 5.373 12 12s-5.373 12-12 12v0zM948.5 155.24c-1.156 9.136-3.447 17.436-6.754 25.199l0.232-0.613c3.197 2.185 5.267 5.814 5.267 9.926 0 6.62-5.366 11.986-11.986 11.986-1.903 0-3.703-0.444-5.301-1.233l0.070 0.031c-5.237 6.847-11.155 12.782-17.757 17.871l-0.223 0.165c0.739 1.512 1.171 3.289 1.171 5.168 0 6.621-5.367 11.988-11.988 11.988-4.053 0-7.636-2.011-9.806-5.090l-0.025-0.038c-7.176 3.114-15.507 5.437-24.212 6.566l-0.47 0.050c-0.534 6.175-5.678 10.985-11.946 10.985-5.99 0-10.954-4.393-11.845-10.134l-0.009-0.067h-20.246c-0.897 5.808-5.861 10.204-11.851 10.204s-10.954-4.395-11.842-10.136l-0.009-0.067h-20.24c-0.897 5.807-5.86 10.202-11.849 10.202s-10.952-4.394-11.84-10.135l-0.009-0.067h-20.22c-0.903 5.805-5.866 10.196-11.855 10.196-4.496 0-8.413-2.474-10.466-6.135l-0.031-0.060v22.82h44.5c6.627 0 12 5.373 12 12v0 31.020h106.12c39.117 0.046 70.814 31.743 70.86 70.856v114.024c-0.006 5.802-0.515 11.481-1.486 17.001l0.086-0.589-27.986 220.24q-0.036 0.276-0.084 0.546c-5.211 29.412-30.579 51.462-61.098 51.462-0.036 0-0.072 0-0.108 0h-220.024c-21.957-0.061-39.761-17.755-40-39.663v-0.023l-1.266-161.374-192.434 127.722c-5.434 3.861-12.204 6.172-19.514 6.172-7.079 0-13.652-2.168-19.091-5.876l0.117 0.076-198.824 141.37c-6.601 4.94-14.926 7.91-23.945 7.91-22.202 0-40.2-17.998-40.2-40.2 0-6.856 1.716-13.311 4.742-18.959l-0.105 0.215v-226.97h-8.020c-11.041-0.013-19.987-8.959-20-19.999v-50.961c0.013-11.041 8.959-19.987 19.999-20h10.601v-23.76c0-0.016 0.001-0.034 0.001-0.052 0-0.847-0.549-1.566-1.311-1.82l-0.014-0.004c-24.118-6.183-41.66-27.727-41.66-53.367 0-29.618 23.406-53.769 52.729-54.965l0.108-0.004c0.736-0.028 1.466-0.042 2.2-0.042 0.050 0 0.11 0 0.169 0 20.715 0 38.738 11.526 48.006 28.514l0.143 0.286c0.894 1.639 1.42 3.589 1.42 5.662 0 6.627-5.373 12-12 12-4.511 0-8.441-2.489-10.491-6.169l-0.031-0.061c-5.272-9.734-15.409-16.233-27.063-16.233-0.501 0-0.999 0.012-1.495 0.036l0.070-0.003c-16.596 0.664-29.799 14.278-29.799 30.977 0 14.464 9.905 26.614 23.302 30.037l0.215 0.047c11.294 2.926 19.5 13.026 19.5 25.044 0 0.041 0 0.083 0 0.124v-0.006 23.76h10.62c11.041 0.013 19.987 8.959 20 19.999v50.961c-0.013 11.041-8.959 19.987-19.999 20h-13.201v206l192.28-400.65v-57.29c0-6.627 5.373-12 12-12v0h120.52v-31.020c0-6.627 5.373-12 12-12v0h48.040v-22.488c-2.126 3.537-5.942 5.867-10.303 5.867-5.988 0-10.95-4.393-11.838-10.132l-0.009-0.067h-20.238c-0.897 5.808-5.861 10.204-11.851 10.204s-10.954-4.395-11.842-10.136l-0.009-0.067h-23.2c-0.902 5.806-5.866 10.198-11.855 10.198-6.255 0-11.391-4.79-11.941-10.902l-0.003-0.046c-9.182-1.151-17.528-3.457-25.327-6.794l0.609 0.232c-2.203 3.058-5.754 5.025-9.765 5.025-6.627 0-12-5.373-12-12 0-1.823 0.407-3.551 1.134-5.099l-0.031 0.073c-6.875-5.256-12.829-11.206-17.922-17.852l-0.166-0.226c-1.466 0.687-3.183 1.089-4.994 1.089-6.627 0-12-5.373-12-12 0-3.997 1.954-7.538 4.959-9.719l0.035-0.024c-3.112-7.194-5.423-15.544-6.53-24.27l-0.048-0.462c-6.114-0.606-10.85-5.722-10.85-11.945 0-6.239 4.762-11.366 10.849-11.946l0.048-0.004c1.193-9.169 3.526-17.489 6.88-25.265l-0.234 0.609c-3.157-2.189-5.199-5.793-5.199-9.875 0-6.615 5.363-11.978 11.978-11.978 1.92 0 3.734 0.452 5.342 1.254l-0.069-0.031c5.257-6.815 11.195-12.724 17.814-17.785l0.23-0.169c-0.783-1.549-1.242-3.377-1.242-5.312 0-6.615 5.363-11.978 11.978-11.978 4.152 0 7.81 2.112 9.959 5.32l0.027 0.043c7.133-3.060 15.414-5.34 24.063-6.442l0.465-0.048c0.371-6.321 5.588-11.306 11.969-11.306 6.114 0 11.159 4.577 11.895 10.491l0.006 0.059h23.088c0.771-5.951 5.807-10.501 11.906-10.501s11.135 4.55 11.9 10.441l0.006 0.060h20.128c0.771-5.951 5.807-10.501 11.906-10.501s11.135 4.55 11.9 10.441l0.006 0.060h20.128c0.771-5.951 5.807-10.501 11.906-10.501s11.135 4.55 11.9 10.441l0.006 0.060h20.128c0.771-5.951 5.807-10.501 11.906-10.501s11.135 4.55 11.9 10.441l0.006 0.060h20.128c0.774-5.947 5.809-10.493 11.905-10.493s11.131 4.546 11.899 10.433l0.006 0.060h20.13c0.771-5.951 5.807-10.501 11.906-10.501s11.135 4.55 11.9 10.441l0.006 0.060h20.128c0.767-5.955 5.805-10.509 11.907-10.509s11.14 4.554 11.901 10.449l0.006 0.060h20.106c0.767-5.955 5.805-10.509 11.907-10.509s11.14 4.554 11.901 10.449l0.006 0.060h20.126c0.771-5.951 5.807-10.501 11.906-10.501s11.135 4.55 11.9 10.441l0.006 0.060h20.128c0.741-5.974 5.787-10.552 11.902-10.552 6.392 0 11.615 5.002 11.969 11.305l0.001 0.031c9.103 1.167 17.368 3.467 25.096 6.78l-0.608-0.232c2.168-3.304 5.856-5.456 10.047-5.456 6.615 0 11.978 5.363 11.978 11.978 0 2.016-0.498 3.916-1.378 5.584l0.031-0.065c6.792 5.206 12.68 11.086 17.729 17.645l0.165 0.223c1.587-0.829 3.466-1.316 5.459-1.316 6.616 0 11.98 5.364 11.98 11.98 0 4.155-2.115 7.816-5.327 9.965l-0.043 0.027c3.098 7.122 5.415 15.39 6.549 24.030l0.051 0.472c6.288 0.408 11.234 5.607 11.234 11.962 0 6.34-4.923 11.531-11.154 11.958l-0.037 0.002zM373.86 686c1.835 2.558 4.8 4.204 8.149 4.204 2.173 0 4.185-0.693 5.825-1.871l-0.030 0.020c0.106-0.074 0.212-0.148 0.318-0.218l192.522-127.782h-58.498l-145.6 111.448c-0.112 0.086-0.226 0.17-0.34 0.252-2.551 1.84-4.192 4.804-4.192 8.151 0 2.173 0.692 4.184 1.867 5.826l-0.021-0.030zM137.92 547.78v-42.96h-37.22v42.96zM140.34 801.14c-0.007 0-0.016 0-0.025 0-0.751 0-1.491 0.050-2.216 0.147l0.085-0.009c-8.003 1.099-14.102 7.893-14.102 16.111 0 8.977 7.277 16.254 16.254 16.254 3.639 0 6.998-1.196 9.707-3.216l-0.043 0.031 0.072-0.056c3.979-2.97 6.528-7.666 6.528-12.958 0-1.11-0.112-2.193-0.326-3.24l0.018 0.104c-1.491-7.552-8.061-13.168-15.942-13.168-0.004 0-0.007 0-0.011 0h0.001zM321 432.6l-166.576 347.094c5.503 2.092 10.208 5.144 14.133 8.989l-0.007-0.007 152.45-243.76zM187.34 803.896l161.826-115.056c-0.708-2.592-1.115-5.569-1.115-8.641 0-11.293 5.501-21.302 13.969-27.492l0.096-0.067 120.546-92.278h-143.014zM477.52 288.82v19.020h192.8c6.627 0 12 5.373 12 12s-5.373 12-12 12v0h-325.32v204.52h260.72c0 0 0 0 0 0 6.593 0 11.944 5.317 12 11.897v0.005l1.52 193.244c0.096 8.772 7.217 15.85 15.998 15.874h220.022c0.018 0 0.040 0 0.061 0 18.638 0 34.147-13.4 37.417-31.092l0.036-0.234 27.982-220.2c0.024-0.18 0.050-0.36 0.080-0.54 0.694-3.78 1.096-8.134 1.104-12.581v-114.027c-0.031-25.868-20.992-46.829-46.857-46.86h-163.733c-6.627 0-12-5.373-12-12s5.373-12 12-12v0h33.61v-19.020zM688.46 264.82v-21.23c-2.213 2.817-5.619 4.609-9.443 4.609-5.991 0-10.955-4.399-11.838-10.143l-0.008-0.067h-20.24c-0.897 5.808-5.861 10.204-11.851 10.204s-10.954-4.395-11.842-10.136l-0.009-0.067h-20.228c-0.897 5.808-5.861 10.204-11.851 10.204s-10.954-4.395-11.842-10.136l-0.009-0.067h-20.24c-0.896 5.807-5.857 10.201-11.845 10.201-3.942 0-7.439-1.904-9.622-4.843l-0.023-0.032v21.504zM904.53 93.66c-12.684-12.809-30.273-20.74-49.716-20.74-0.026 0-0.052 0-0.079 0h-442.536c-38.958 0-70.54 31.582-70.54 70.54s31.582 70.54 70.54 70.54v0h442.54c0.025 0 0.054 0 0.083 0 38.901 0 70.436-31.535 70.436-70.436 0-19.499-7.923-37.148-20.726-49.902l-0.002-0.002zM464.382 154.37q-0.532 2.446-1.284 4.8c1.548 2 2.481 4.545 2.481 7.307 0 6.627-5.373 12-12 12-0.563 0-1.117-0.039-1.66-0.114l0.063 0.007q-1.66 1.826-3.49 3.49c0.068 0.479 0.106 1.032 0.106 1.595 0 6.627-5.373 12-12 12-2.762 0-5.306-0.933-7.334-2.501l0.028 0.021q-2.358 0.754-4.8 1.284c-1.849 4.39-6.116 7.416-11.090 7.416s-9.241-3.026-11.060-7.337l-0.030-0.079q-2.444-0.53-4.8-1.286c-2 1.547-4.544 2.481-7.306 2.481-6.627 0-12-5.373-12-12 0-0.562 0.039-1.114 0.113-1.655l-0.007 0.063q-1.826-1.662-3.49-3.49c-0.479 0.068-1.032 0.106-1.595 0.106-6.627 0-12-5.373-12-12 0-2.762 0.933-5.306 2.501-7.334l-0.021 0.028q-0.752-2.358-1.286-4.8c-4.39-1.849-7.416-6.116-7.416-11.090s3.026-9.241 7.337-11.060l0.079-0.030q0.534-2.446 1.286-4.8c-1.549-2.001-2.483-4.546-2.483-7.31 0-6.627 5.373-12 12-12 0.004 0 0.008 0 0.012 0h-0.001c0.56 0.001 1.11 0.041 1.648 0.117l-0.062-0.007q1.662-1.826 3.49-3.492c-0.068-0.478-0.106-1.031-0.106-1.593 0-6.627 5.373-12 12-12 2.762 0 5.306 0.933 7.334 2.501l-0.028-0.021c1.57-0.504 3.176-0.932 4.8-1.286 1.849-4.39 6.116-7.416 11.090-7.416s9.241 3.026 11.060 7.337l0.030 0.079q2.444 0.532 4.8 1.286c2-1.547 4.544-2.48 7.306-2.48 6.627 0 12 5.373 12 12 0 0.561-0.038 1.113-0.113 1.653l0.007-0.063q1.826 1.664 3.492 3.494c0.475-0.069 1.024-0.109 1.583-0.11h0.001c0.004 0 0.009 0 0.013 0 6.627 0 12 5.373 12 12 0 2.764-0.934 5.309-2.504 7.338l0.021-0.028q0.752 2.354 1.284 4.8c4.39 1.849 7.416 6.116 7.416 11.090s-3.026 9.241-7.337 11.060l-0.079 0.030zM413.4 115.1c-15.563 0-28.18 12.617-28.18 28.18s12.617 28.18 28.18 28.18c15.563 0 28.18-12.617 28.18-28.18v0c-0.018-15.556-12.624-28.162-28.178-28.18h-0.002zM894.964 178.372q-1.662 1.828-3.492 3.492c0.068 0.479 0.106 1.032 0.106 1.595 0 6.627-5.373 12-12 12-2.762 0-5.306-0.933-7.334-2.501l0.028 0.021q-2.356 0.754-4.8 1.284c-1.85 4.389-6.116 7.414-11.089 7.414s-9.239-3.025-11.059-7.335l-0.030-0.079q-2.448-0.53-4.8-1.286c-2 1.547-4.544 2.481-7.306 2.481-6.627 0-12-5.373-12-12 0-0.562 0.039-1.114 0.113-1.655l-0.007 0.063q-1.826-1.662-3.492-3.492c-0.479 0.068-1.032 0.106-1.595 0.106-6.627 0-12-5.373-12-12 0-2.762 0.933-5.306 2.501-7.334l-0.021 0.028q-0.754-2.358-1.286-4.8c-4.389-1.85-7.414-6.116-7.414-11.089s3.025-9.239 7.335-11.059l0.079-0.030q0.534-2.448 1.286-4.8c-1.549-2.001-2.483-4.546-2.483-7.31 0-6.627 5.373-12 12-12 0.004 0 0.008 0 0.012 0h-0.001c0.56 0.001 1.11 0.041 1.648 0.117l-0.062-0.007q1.662-1.826 3.494-3.492c-0.068-0.478-0.106-1.031-0.106-1.593 0-6.627 5.373-12 12-12 2.762 0 5.306 0.933 7.334 2.501l-0.028-0.021q2.358-0.756 4.8-1.286c1.85-4.389 6.116-7.414 11.089-7.414s9.239 3.025 11.059 7.335l0.030 0.079q2.448 0.532 4.8 1.286c2-1.547 4.544-2.481 7.306-2.481 6.627 0 12 5.373 12 12 0 0.562-0.039 1.114-0.113 1.655l0.007-0.063q1.828 1.662 3.49 3.492c0.476-0.069 1.026-0.109 1.585-0.11h0.001c0.004 0 0.009 0 0.013 0 6.627 0 12 5.373 12 12 0 2.764-0.934 5.309-2.504 7.338l0.021-0.028q0.754 2.354 1.286 4.8c4.389 1.85 7.414 6.116 7.414 11.089s-3.025 9.239-7.335 11.059l-0.079 0.030q-0.534 2.446-1.286 4.8c1.548 2 2.481 4.544 2.481 7.306 0 6.627-5.373 12-12 12-0.562 0-1.116-0.039-1.658-0.114l0.063 0.007zM856.38 115.1c-15.563 0-28.18 12.617-28.18 28.18s12.617 28.18 28.18 28.18c15.563 0 28.18-12.617 28.18-28.18v0c-0.018-15.556-12.624-28.162-28.178-28.18h-0.002zM612.044 154.37q-0.534 2.446-1.286 4.8c1.548 2 2.481 4.545 2.481 7.307 0 6.627-5.373 12-12 12-0.563 0-1.117-0.039-1.66-0.114l0.063 0.007q-1.66 1.826-3.49 3.49c0.068 0.479 0.106 1.032 0.106 1.595 0 6.627-5.373 12-12 12-2.762 0-5.306-0.933-7.334-2.501l0.028 0.021q-2.358 0.754-4.8 1.284c-1.849 4.39-6.116 7.416-11.090 7.416s-9.241-3.026-11.060-7.337l-0.030-0.079q-2.444-0.53-4.8-1.286c-2 1.547-4.544 2.481-7.306 2.481-6.627 0-12-5.373-12-12 0-0.562 0.039-1.114 0.113-1.655l-0.007 0.063q-1.826-1.662-3.49-3.49c-0.479 0.068-1.032 0.106-1.595 0.106-6.627 0-12-5.373-12-12 0-2.762 0.933-5.306 2.501-7.334l-0.021 0.028q-0.752-2.358-1.286-4.8c-4.39-1.849-7.416-6.116-7.416-11.090s3.026-9.241 7.337-11.060l0.079-0.030q0.534-2.446 1.286-4.8c-1.549-2.001-2.483-4.546-2.483-7.31 0-6.627 5.373-12 12-12 0.004 0 0.008 0 0.012 0h-0.001c0.559 0.001 1.109 0.041 1.646 0.117l-0.062-0.007q1.666-1.826 3.492-3.492c-0.068-0.478-0.106-1.031-0.106-1.593 0-6.627 5.373-12 12-12 2.762 0 5.306 0.933 7.334 2.501l-0.028-0.021c1.57-0.504 3.176-0.932 4.8-1.286 1.849-4.39 6.116-7.416 11.090-7.416s9.241 3.026 11.060 7.337l0.030 0.079q2.448 0.532 4.8 1.286c2-1.547 4.544-2.48 7.306-2.48 6.627 0 12 5.373 12 12 0 0.561-0.038 1.113-0.113 1.653l0.007-0.063q1.826 1.664 3.492 3.494c0.475-0.069 1.024-0.109 1.583-0.11h0.001c0.004 0 0.009 0 0.013 0 6.627 0 12 5.373 12 12 0 2.764-0.934 5.309-2.504 7.338l0.021-0.028q0.752 2.354 1.286 4.8c4.39 1.849 7.416 6.116 7.416 11.090s-3.026 9.241-7.337 11.060l-0.079 0.030zM561.060 115.1c-15.563 0-28.18 12.617-28.18 28.18s12.617 28.18 28.18 28.18c15.563 0 28.18-12.617 28.18-28.18v0c-0.018-15.556-12.624-28.162-28.178-28.18h-0.002zM759.704 154.37q-0.534 2.446-1.286 4.8c1.548 2 2.481 4.544 2.481 7.306 0 6.627-5.373 12-12 12-0.562 0-1.116-0.039-1.658-0.114l0.063 0.007q-1.662 1.828-3.492 3.494c0.068 0.478 0.106 1.031 0.106 1.593 0 6.627-5.373 12-12 12-2.762 0-5.306-0.933-7.334-2.501l0.028 0.021q-2.352 0.754-4.8 1.284c-1.849 4.39-6.116 7.416-11.090 7.416s-9.241-3.026-11.060-7.337l-0.030-0.079q-2.446-0.53-4.8-1.286c-2 1.547-4.544 2.481-7.306 2.481-6.627 0-12-5.373-12-12 0-0.562 0.039-1.114 0.113-1.655l-0.007 0.063q-1.83-1.662-3.496-3.492c-0.478 0.068-1.031 0.106-1.593 0.106-6.627 0-12-5.373-12-12 0-2.762 0.933-5.306 2.501-7.334l-0.021 0.028q-0.754-2.358-1.286-4.8c-4.388-1.85-7.411-6.116-7.411-11.088s3.024-9.238 7.333-11.058l0.079-0.030q0.532-2.448 1.286-4.8c-1.549-2.001-2.483-4.546-2.483-7.31 0-6.627 5.373-12 12-12 0.004 0 0.008 0 0.012 0h-0.001c0.56 0.001 1.11 0.041 1.648 0.117l-0.062-0.007q1.662-1.826 3.494-3.492c-0.068-0.478-0.106-1.031-0.106-1.593 0-6.627 5.373-12 12-12 2.762 0 5.306 0.933 7.334 2.501l-0.028-0.021q2.358-0.756 4.8-1.286c1.849-4.39 6.116-7.416 11.090-7.416s9.241 3.026 11.060 7.337l0.030 0.079q2.448 0.532 4.8 1.286c2-1.547 4.544-2.48 7.306-2.48 6.627 0 12 5.373 12 12 0 0.561-0.038 1.113-0.113 1.653l0.007-0.063q1.826 1.664 3.49 3.494c0.476-0.069 1.026-0.109 1.585-0.11h0.001c0.004 0 0.009 0 0.013 0 6.627 0 12 5.373 12 12 0 2.764-0.934 5.309-2.504 7.338l0.021-0.028q0.752 2.354 1.286 4.8c4.389 1.85 7.414 6.116 7.414 11.089s-3.025 9.239-7.335 11.059l-0.079 0.030zM708.72 115.1c-15.563 0-28.18 12.617-28.18 28.18s12.617 28.18 28.18 28.18c15.563 0 28.18-12.617 28.18-28.18v0c-0.018-15.556-12.624-28.162-28.178-28.18h-0.002z" />
<glyph unicode="&#xe944;" glyph-name="brickwall" d="M17.070-65.978h819.198c9.43 0 17.070 7.641 17.070 17.063v153.602h119.461c9.43 0 17.070 7.641 17.070 17.063v170.672c0 9.422-7.641 17.063-17.070 17.063h-119.461v153.602c0 9.43-7.641 17.070-17.070 17.070h-31.32c2.406 11.156-0.141 22.813-6.977 31.953l-77.117 102.797 35.609 26.711c15.82 11.844 24.656 30.828 23.539 50.563l-1.711 30.734c-0.469 8.336 3.266 16.352 9.945 21.359l35.602 26.703 14.984-19.969c2.711-3.617 6.75-6.016 11.234-6.656 0.797-0.109 1.602-0.172 2.414-0.164 3.695-0.008 7.289 1.195 10.242 3.414l140.813 105.633c22.609 16.961 27.195 49.047 10.234 71.664l-9.484 12.656c-16.984 22.586-49.055 27.156-71.68 10.219l-140.797-105.625c-7.539-5.656-9.070-16.359-3.414-23.899l14.977-19.969-35.602-26.711c-15.82-11.844-24.664-30.82-23.539-50.555l1.703-30.734c0.477-8.336-3.258-16.359-9.938-21.359l-35.602-26.711-77.125 102.797c-8.070 10.93-21.18 16.953-34.734 15.961-12.93-0.938-24.484-8.438-30.617-19.867l-140.235-260.946h-400.603c-9.43 0-17.070-7.641-17.070-17.070v-170.665c0-9.43 7.641-17.070 17.070-17.070h119.461v-136.532h-119.461c-9.43 0-17.070-7.641-17.070-17.070v-170.665c0-9.422 7.641-17.063 17.070-17.063zM953.081 920.478c7.531 5.656 18.227 4.133 23.891-3.406l9.484-12.656c5.648-7.539 4.117-18.227-3.414-23.883l-127.165-95.399-29.961 39.953zM307.204 104.686h238.931v-136.532h-238.931zM443.736 275.351h238.931v-136.532h-238.931zM819.206-31.845h-238.938v136.532h238.938zM955.738 138.819h-238.938v136.532h238.938zM819.206 309.484h-238.938v99.383l174.688 37.156h64.25zM587.986 724.931c0.578 1.195 1.781 1.961 3.109 2l0.336 0.016c1.813-0.031 3.492-0.93 4.523-2.414l77.11-102.797-70.406-52.82c-7.539-5.656-9.070-16.352-3.414-23.899 5.656-7.539 16.352-9.063 23.899-3.414l70.406 52.82 77.117-102.797c1.227-1.5 1.586-3.523 0.938-5.344-0.406-1.266-1.477-2.195-2.789-2.43l-338.587-72c-2.102-0.328-4.211 0.57-5.422 2.32-1.359 1.641-1.633 3.922-0.703 5.844zM397.509 393.687c9.094-12.508 24.703-18.469 39.82-15.219l108.805 23.141v-92.125h-238.931v136.54h92.118l-5.289-9.844c-7.313-13.617-5.945-30.25 3.477-42.492zM34.133 377.75h34.133c9.43 0 17.070 7.641 17.070 17.070 0 9.422-7.641 17.063-17.070 17.063h-34.133v34.141h238.938v-136.54h-238.938zM170.665 275.351h238.938v-136.532h-238.938zM34.133 104.686h238.938v-136.532h-238.938zM221.868 394.82c0 9.422-7.641 17.063-17.070 17.063h-68.266c-9.422 0-17.063-7.641-17.063-17.063 0-9.43 7.641-17.070 17.063-17.070h68.266c9.43 0 17.070 7.641 17.070 17.070z" />
<glyph unicode="&#xe945;" glyph-name="drill" d="M153.6 857.6h-51.2c-18.844-0.018-34.114-15.29-34.134-34.134v-90.842c-0.048-13.97 8.462-26.544 21.45-31.692l51.208-20.492c4.032-1.612 8.334-2.44 12.676-2.442 18.854 0.004 34.134 15.288 34.134 34.142v111.326c-0.020 18.844-15.29 34.114-34.134 34.134zM153.6 712.134l-51.2 20.492v90.84h51.2v-111.332zM1006.934 789.334h-85.334c-0.018 18.844-15.29 34.114-34.134 34.134h-38.778c-4.682 8.346-12.584 14.762-22.34 17.342l-60.336 13.788c-6.128 21.422-25.83 37.11-49.214 37.136h-98.412c-9.372 10.46-22.976 17.050-38.122 17.066h-51.2c-3.438-0.004-6.752-0.526-9.882-1.474l-71.576 42.94c-10.608 6.366-22.748 9.73-35.122 9.734h-152.342c-18.118 0.050-35.502-7.152-48.276-20l-4.134-4.134c-6.388-6.424-15.082-10.024-24.142-10h-115.324c-37.684-0.042-68.222-30.582-68.266-68.266v-171.524c0.014-26.974 15.898-51.416 40.542-62.384l81-36c15.606-6.918 23.686-24.312 18.908-40.7-23.368-76.406-36.17-155.65-38.050-235.526v-71.192c0.012-4.532-1.788-8.88-5-12.074l-24.11-24.11c-0.016-0.016-0.030-0.030-0.046-0.046l-7.044-7.044c-9.636-9.58-15.038-22.62-15-36.208v-139.458c0.056-47.106 38.228-85.278 85.334-85.334h382.2c10.11-0.010 19.994 2.982 28.4 8.6l27.4 18.266c14.258 9.482 22.818 25.476 22.8 42.6v56.124c0.016 10.672-3.32 21.082-9.534 29.758l-43.25 60.542c-25.656 35.846-67.018 57.132-111.1 57.176h-115.5c-8.73 0.010-16.95 4.114-22.206 11.084s-6.938 16.002-4.544 24.398l52.392 183.384c6.354 21.952 26.43 37.080 49.284 37.134 18.654 0.020 33.772 15.138 33.792 33.792v17.408c0 2.65-0.616 5.264-1.8 7.634-0.266 0.524-25.066 51.224 7.384 77.7h45.616c22.334 0.024 41.308 14.336 48.31 34.282 0.956-0.082 1.914-0.148 2.89-0.148h51.2c15.146 0.016 28.75 6.608 38.122 17.066h98.41c23.384 0.026 43.086 15.716 49.214 37.138l60.344 13.796c9.752 2.578 17.652 8.99 22.332 17.334h38.776c18.844 0.018 34.114 15.29 34.134 34.134h85.334c9.426 0 17.066 7.642 17.066 17.066s-7.64 17.066-17.066 17.066zM555.6-8.734l-27.41-18.266c-2.798-1.874-6.090-2.872-9.458-2.868h-382.2c-28.264 0.030-51.17 22.936-51.2 51.2h477.868v-15.866c0.004-5.706-2.848-11.038-7.6-14.2zM341.334 174.934h92.116c33.060-0.034 64.080-15.994 83.326-42.876l43.242-60.542c2.076-2.892 3.188-6.364 3.184-9.924v-6.126h-477.868v105.326c-0.012 4.532 1.788 8.88 5 12.074l2.066 2.066h248.934zM326.728 467.716c-14.038 37.56-14.964 68.010-2.678 90.76 16.070 29.78 51.732 39.61 65.132 42.324-14.284-30.734-6.224-67.13 3.418-88.514l0.224-13.084c-26.218-0.088-50.234-12.080-66.096-31.486zM494.934 652.8c-0.012-9.42-7.646-17.054-17.066-17.066h-85.334c-0.63 0.002-1.258-0.034-1.882-0.108-2.758-0.3-67.9-8.108-96.484-60.65-20.764-38.162-16.23-88.22 13.426-148.798l-49.218-172.26c-4.298-15.080-2.682-31.080 4.246-44.85h-136.696c6.862 8.89 10.64 19.854 10.608 31.208v71.192c1.87 76.582 14.194 152.548 36.634 225.792 9.634 32.822-6.506 67.708-37.758 81.616l-81 36.008c-12.324 5.482-20.268 17.704-20.276 31.192v171.524c0.018 18.844 15.29 34.114 34.134 34.134h115.324c18.118-0.050 35.502 7.152 48.276 20l4.132 4.132c6.388 6.424 15.082 10.024 24.142 10h152.342c6.186-0.002 12.254-1.684 17.558-4.866l65.614-39.364c-0.468-2.25-0.72-4.58-0.724-6.968v-221.868zM580.266 669.866h-51.2v34.134h17.066c9.426 0 17.066 7.642 17.066 17.066s-7.642 17.066-17.066 17.066h-17.066v68.268h17.066c9.426 0 17.066 7.64 17.066 17.066s-7.642 17.066-17.066 17.066h-17.066v34.134h51.2c9.42-0.012 17.054-7.646 17.066-17.066v-170.666c-0.010-9.422-7.644-17.056-17.066-17.068zM716.8 686.934h-85.334v102.4h51.2c9.426 0 17.066 7.64 17.066 17.066s-7.64 17.066-17.066 17.066h-51.2v34.134h85.334c9.42-0.012 17.054-7.646 17.066-17.066v-136.534c-0.012-9.42-7.646-17.054-17.066-17.066zM768 725.408v93.742l50.316-11.45c0.632-0.736 0.948-1.69 0.884-2.658v-65.55c-0.050-0.842-0.2-1.676-0.45-2.484l-50.75-11.6zM853.334 755.2v34.134h34.134l0.012-16.822c-0.002-0.082-0.012-0.162-0.012-0.244 0-0.084 0.012-0.166 0.012-0.252l0.012-16.816h-34.158zM426.666 857.6h-170.666c-9.426 0-17.066-7.64-17.066-17.066s7.64-17.066 17.066-17.066h170.666c9.426 0 17.066 7.64 17.066 17.066s-7.64 17.066-17.066 17.066zM426.666 789.334h-170.666c-9.426 0-17.066-7.642-17.066-17.066 0-9.426 7.64-17.066 17.066-17.066h170.666c9.426 0 17.066 7.642 17.066 17.066 0.002 9.424-7.64 17.066-17.066 17.066zM426.666 721.066h-170.666c-9.426 0-17.066-7.64-17.066-17.066s7.64-17.066 17.066-17.066h170.666c9.426 0 17.066 7.64 17.066 17.066 0.002 9.426-7.64 17.066-17.066 17.066z" />
<glyph unicode="&#xe946;" glyph-name="dial" d="M791.274 773.819c51.432 0 93.092 41.657 93.092 93.092-0.002 51.432-41.66 93.090-93.092 93.090-51.434 0-93.092-41.657-93.092-93.092 0-51.432 41.657-93.090 93.092-93.090zM232.728 680.727c-51.434 0-93.092-41.657-93.092-93.092s41.657-93.092 93.092-93.092c51.432 0 93.092 41.657 93.092 93.092s-41.66 93.092-93.092 93.092zM232.728 960c-51.434 0-93.092-41.657-93.092-93.092 0-51.432 41.657-93.092 93.092-93.092 51.432 0 93.092 41.657 93.092 93.092-0.002 51.434-41.66 93.092-93.092 93.092zM232.728 401.454c-51.434 0-93.092-41.657-93.092-93.092 0-51.432 41.657-93.092 93.092-93.092 51.432 0 93.092 41.657 93.092 93.092-0.002 51.434-41.66 93.092-93.092 93.092zM512.001 122.181c-51.434 0-93.092-41.657-93.092-93.092 0-51.432 41.657-93.092 93.092-93.092s93.092 41.657 93.092 93.092c-0.002 51.434-41.66 93.092-93.092 93.092zM791.274 680.727c-51.434 0-93.092-41.657-93.092-93.092s41.657-93.092 93.092-93.092c51.432 0 93.092 41.657 93.092 93.092s-41.66 93.092-93.092 93.092zM512.001 401.454c-51.434 0-93.092-41.657-93.092-93.092 0-51.432 41.657-93.092 93.092-93.092s93.092 41.657 93.092 93.092c-0.002 51.434-41.66 93.092-93.092 93.092zM791.274 401.454c-51.434 0-93.092-41.657-93.092-93.092 0-51.432 41.657-93.092 93.092-93.092 51.432 0 93.092 41.657 93.092 93.092-0.002 51.434-41.66 93.092-93.092 93.092zM512.001 680.727c-51.434 0-93.092-41.657-93.092-93.092s41.657-93.092 93.092-93.092 93.092 41.657 93.092 93.092-41.66 93.092-93.092 93.092zM512.001 960c-51.434 0-93.092-41.657-93.092-93.092 0-51.432 41.657-93.092 93.092-93.092s93.092 41.657 93.092 93.092c-0.002 51.434-41.66 93.092-93.092 93.092z" />
<glyph unicode="&#xe947;" glyph-name="map-marker" d="M860.641 216.891c-55.438 14.945-121.523 25.914-193.5 32.375l-155.141-290.133-155.133 290.133c-71.984-6.461-138.070-17.422-193.5-32.375-108.406-29.242-163.367-69.914-163.367-120.891s54.961-91.648 163.359-120.891c93.516-25.219 217.328-39.109 348.641-39.109s255.125 13.891 348.641 39.109c108.398 29.242 163.359 69.914 163.359 120.891s-54.961 91.648-163.359 120.891zM512 600c33.086 0 60 26.914 60 60s-26.914 60-60 60-60-26.914-60-60 26.914-60 60-60zM334.523 418.289l177.477-331.914 177.477 331.914c74.25 54.664 122.523 142.648 122.523 241.711 0 165.422-134.578 300-300 300s-300-134.578-300-300c0-99.063 48.273-187.047 122.523-241.711zM512 780c66.172 0 120-53.828 120-120s-53.828-120-120-120-120 53.828-120 120 53.828 120 120 120z" />
<glyph unicode="&#xe948;" glyph-name="comment" d="M994 960h-964c-16.568 0-30-13.432-30-30v-771.202c0-16.568 13.432-30 30-30h162.8v-162.798c0-12.134 7.31-23.074 18.52-27.716 3.712-1.538 7.61-2.284 11.474-2.284 7.808 0 15.482 3.048 21.22 8.788l184.012 184.012h565.974c16.568 0 30 13.432 30 30v771.2c0 16.568-13.432 30-30 30zM964 188.798h-548.4c-7.956 0-15.588-3.162-21.212-8.788l-141.586-141.584v120.372c0 16.568-13.432 30-30 30h-162.802v711.202h904v-711.202zM340.42 565.62c-5.6 5.58-13.32 8.78-21.22 8.78s-15.62-3.2-21.22-8.78c-5.58-5.6-8.78-13.32-8.78-21.22s3.2-15.64 8.78-21.22c5.6-5.58 13.32-8.78 21.22-8.78s15.62 3.2 21.22 8.78c5.58 5.6 8.78 13.32 8.78 21.22s-3.2 15.62-8.78 21.22zM533.218 565.62c-5.6 5.58-13.318 8.78-21.218 8.78s-15.64-3.2-21.22-8.78c-5.58-5.6-8.78-13.32-8.78-21.22s3.2-15.62 8.78-21.22c5.58-5.58 13.32-8.78 21.22-8.78s15.62 3.2 21.218 8.78c5.58 5.6 8.782 13.32 8.782 21.22s-3.202 15.62-8.782 21.22zM726.020 565.62c-5.6 5.58-13.32 8.78-21.22 8.78-7.898 0-15.62-3.2-21.218-8.78-5.58-5.6-8.782-13.32-8.782-21.22s3.202-15.64 8.782-21.22c5.598-5.58 13.318-8.78 21.218-8.78s15.64 3.2 21.22 8.78c5.58 5.6 8.78 13.32 8.78 21.22s-3.2 15.62-8.78 21.22z" />
<glyph unicode="&#xe949;" glyph-name="phone-call-1" d="M970.405 261.133l-103.021 84.403c-67.117 54.986-171.304 49.782-232.533-11.445l-4.090-4.090c-10.267-10.267-26.991-10.186-37.113-0.061l-199.048 199.048c-10.049 10.049-10.247 26.211-0.564 36.473 0.177 0.186 0.356 0.37 0.537 0.554l-0.547-0.547c0.182 0.182 0.363 0.366 0.545 0.547 60.891 61.475 66.717 166.142 13.378 233.578l-83.557 105.636c-53.708 67.902-147.050 73.147-208.272 11.925l-15.348-15.348c-108.742-108.742-134.367-304.736-52.8-435.048 0 0 48.016-111.355 210.056-273.395s273.395-210.056 273.395-210.056c131.528-79.58 326.239-56.009 434.957 52.709l14.617 14.617c61.269 61.269 56.482 155.549-10.591 210.498zM906.978 124.651l-14.617-14.617c-74.639-74.639-216.43-91.817-306.755-37.167l-6.146 3.719-6.594 2.843c-8.096 3.491-28.39 14.494-59.070 35.072-54.49 36.549-115.68 86.802-181.755 152.877s-116.33 127.265-152.877 181.755c-20.578 30.681-31.584 50.975-35.072 59.070l-3.16 7.328-4.234 6.764c-54.917 87.735-37.212 230.193 38.090 305.494l15.348 15.348c17.019 17.019 37.366 15.861 52.164-2.848l83.557-105.636c20.603-26.047 17.936-71.393-5.841-95.173-50.582-51.173-50.332-133.611 0.572-184.512l199.048-199.048c51.026-51.026 134.028-51.056 185.148 0.061l4.090 4.090c23.208 23.208 66.71 25.357 92.18 4.49l103.021-84.403c19.234-15.755 20.36-38.053 2.905-55.506z" />
</font>
</defs>
</svg>
